<?xml version="1.0" standalone="no"?>
<!DOCTYPE svg PUBLIC "-//W3C//DTD SVG 1.1//EN" "http://www.w3.org/Graphics/SVG/1.1/DTD/svg11.dtd" >
<svg xmlns="http://www.w3.org/2000/svg" xmlns:xlink="http://www.w3.org/1999/xlink" version="1.1">
<metadata>
Created by FontForge 20170731 at Tue Apr 27 19:14:10 2021
 By Aleksey,,,
Copyright 2015 The Rubik Project Authors (https://github.com/googlefonts/rubik)
</metadata>
<defs>
<font id="Rubik-Medium" horiz-adv-x="0" >
  <font-face 
    font-family="Rubik Medium"
    font-weight="500"
    font-stretch="normal"
    units-per-em="1000"
    panose-1="0 0 0 0 0 0 0 0 0 0"
    ascent="800"
    descent="-200"
    x-height="520"
    cap-height="700"
    bbox="-203 -281 1138 921"
    underline-thickness="50"
    underline-position="-125"
    unicode-range="U+000D-FB4B"
  />
<missing-glyph horiz-adv-x="695" 
d="M102 -117q-22 0 -22 22v891q0 22 22 22h491q22 0 22 -22v-891q0 -22 -22 -22h-491zM181 -59h373v762zM141 -9l377 769h-377v-769z" />
    <glyph glyph-name="fi" unicode="fi" horiz-adv-x="613" 
d="M146 0q-10 0 -17 7t-7 17v390h-81q-10 0 -17 7t-7 18v57q0 10 7 17t17 7h81v41q0 60 22 99.5t65 59.5t109 20h204q11 0 17.5 -7t6.5 -17v-57q0 -11 -6.5 -18t-17.5 -7h-200q-40 0 -55 -20t-15 -58v-36h270q11 0 17.5 -7t6.5 -17v-472q0 -10 -6.5 -17t-17.5 -7h-81
q-10 0 -17 7t-7 17v390h-165v-390q0 -10 -7 -17t-17 -7h-82z" />
    <glyph glyph-name="fl" unicode="fl" horiz-adv-x="653" 
d="M146 0q-10 0 -17 7t-7 17v390h-81q-10 0 -17 7t-7 18v57q0 10 7 17t17 7h81v41q0 60 22 99.5t65 59.5t109 20h60q11 0 17.5 -7t6.5 -17v-57q0 -11 -6.5 -18t-17.5 -7h-56q-40 0 -55 -20t-15 -58v-36h205v196q0 10 7 17t17 7h81q11 0 17.5 -7t6.5 -17v-692q0 -10 -6.5 -17
t-17.5 -7h-81q-10 0 -17 7t-7 17v390h-205v-390q0 -10 -7 -17t-17 -7h-82z" />
    <glyph glyph-name="f_f" unicode="ff" horiz-adv-x="748" 
d="M146 0q-10 0 -17 7t-7 17v390h-81q-10 0 -17 7t-7 18v57q0 10 7 17t17 7h81v41q0 60 22 99.5t65 59.5t109 20h68q11 0 17.5 -7t6.5 -17v-57q0 -11 -6.5 -18t-17.5 -7h-64q-40 0 -55 -20t-15 -58v-36h205v41q0 60 21.5 99.5t65 59.5t108.5 20h69q10 0 17 -7t7 -17v-57
q0 -11 -7 -18t-17 -7h-64q-40 0 -55.5 -20t-15.5 -58v-36h125q10 0 17 -7t7 -17v-57q0 -11 -7 -18t-17 -7h-125v-390q0 -10 -6.5 -17t-17.5 -7h-81q-10 0 -17 7t-7 17v390h-205v-390q0 -10 -7 -17t-17 -7h-82z" />
    <glyph glyph-name="f_f_i" unicode="ffi" horiz-adv-x="948" 
d="M146 0q-10 0 -17 7t-7 17v390h-81q-10 0 -17 7t-7 18v57q0 10 7 17t17 7h81v41q0 60 22 99.5t65 59.5t109 20h68q11 0 17.5 -7t6.5 -17v-57q0 -11 -6.5 -18t-17.5 -7h-64q-40 0 -55 -20t-15 -58v-36h205v41q0 60 21.5 99.5t65 59.5t108.5 20h205q11 0 17.5 -7t6.5 -17
v-57q0 -11 -6.5 -18t-17.5 -7h-200q-40 0 -55.5 -20t-15.5 -58v-36h271q11 0 17.5 -7t6.5 -17v-472q0 -10 -6.5 -17t-17.5 -7h-81q-10 0 -17 7t-7 17v390h-166v-390q0 -10 -6.5 -17t-17.5 -7h-81q-10 0 -17 7t-7 17v390h-205v-390q0 -10 -7 -17t-17 -7h-82z" />
    <glyph glyph-name="f_f_l" unicode="ffl" horiz-adv-x="988" 
d="M146 0q-10 0 -17 7t-7 17v390h-81q-10 0 -17 7t-7 18v57q0 10 7 17t17 7h81v41q0 60 22 99.5t65 59.5t109 20h68q11 0 17.5 -7t6.5 -17v-57q0 -11 -6.5 -18t-17.5 -7h-64q-40 0 -55 -20t-15 -58v-36h205v41q0 60 21.5 99.5t65 59.5t108.5 20h61q10 0 17 -7t7 -17v-57
q0 -11 -7 -18t-17 -7h-56q-40 0 -55.5 -20t-15.5 -58v-36h206v196q0 10 7 17t17 7h81q11 0 17.5 -7t6.5 -17v-692q0 -10 -6.5 -17t-17.5 -7h-81q-10 0 -17 7t-7 17v390h-206v-390q0 -10 -6.5 -17t-17.5 -7h-81q-10 0 -17 7t-7 17v390h-205v-390q0 -10 -7 -17t-17 -7h-82z
" />
    <glyph glyph-name=".notdef" horiz-adv-x="695" 
d="M102 -117q-22 0 -22 22v891q0 22 22 22h491q22 0 22 -22v-891q0 -22 -22 -22h-491zM181 -59h373v762zM141 -9l377 769h-377v-769z" />
    <glyph glyph-name=".null" 
 />
    <glyph glyph-name="nonmarkingreturn" horiz-adv-x="333" 
 />
    <glyph glyph-name="CR" unicode="&#xd;" horiz-adv-x="229" 
 />
    <glyph glyph-name="space" unicode=" " horiz-adv-x="229" 
 />
    <glyph glyph-name="exclam" unicode="!" horiz-adv-x="268" 
d="M93 194q-10 0 -17 6.5t-7 17.5v458q0 10 7 17t17 7h81q11 0 17.5 -7t6.5 -17v-458q0 -11 -6.5 -17.5t-17.5 -6.5h-81zM87 0q-10 0 -17 7t-7 17v93q0 11 7 18t17 7h93q11 0 18 -7t7 -18v-93q0 -10 -7 -17t-18 -7h-93z" />
    <glyph glyph-name="quotedbl" unicode="&#x22;" horiz-adv-x="413" 
d="M275 467q-12 0 -17.5 7.5t-6.5 17.5l-20 192q-1 12 5 19t17 7h89q11 0 17.5 -7t4.5 -19l-20 -192q-1 -10 -6 -17.5t-18 -7.5h-45zM93 467q-13 0 -18 7.5t-7 17.5l-19 192q-2 12 4.5 19t17.5 7h88q11 0 17.5 -7t5.5 -19l-20 -192q-1 -10 -6.5 -17.5t-18.5 -7.5h-44z" />
    <glyph glyph-name="numbersign" unicode="#" horiz-adv-x="691" 
d="M160 39q-9 0 -15.5 6t-5.5 15l16 109h-85q-10 0 -16.5 6.5t-6.5 16.5v56q0 11 6.5 17t16.5 6h100l23 152h-97q-10 0 -16.5 6.5t-6.5 16.5v56q0 11 6.5 17t16.5 6h112l17 109q2 8 7.5 14.5t15.5 6.5h58q9 0 15 -6t5 -15l-16 -109h125l17 109q2 8 7.5 14.5t15.5 6.5h58
q9 0 15 -6t5 -15l-16 -109h84q10 0 16.5 -6t6.5 -17v-56q0 -10 -6.5 -16.5t-16.5 -6.5h-99l-22 -152h95q10 0 16.5 -6t6.5 -17v-56q0 -10 -6.5 -16.5t-16.5 -6.5h-111l-16 -109q-3 -21 -23 -21h-58q-9 0 -15.5 6t-5.5 15l16 109h-125l-16 -109q-3 -21 -23 -21h-58zM273 271
h124l23 152h-125z" />
    <glyph glyph-name="dollar" unicode="$" horiz-adv-x="643" 
d="M290 -100q-10 0 -17 7t-7 17v70q-74 7 -125 35.5t-77 69t-28 84.5q0 9 6.5 15t15.5 6h89q12 0 19 -5.5t11 -13.5q7 -19 23.5 -37.5t46.5 -30.5t75 -12q72 0 107 24t35 65q0 29 -18.5 46.5t-58.5 32t-105 30.5q-74 18 -125 43.5t-76.5 64.5t-25.5 99q0 77 56 131t155 66
v69q0 10 7 17t17 7h61q10 0 17 -7t7 -17v-71q68 -10 114 -40t70 -68.5t25 -74.5q0 -8 -5.5 -14.5t-15.5 -6.5h-93q-9 0 -17 4t-13 15q-5 31 -38 53t-86 22q-54 0 -86.5 -20t-32.5 -62q0 -28 16 -46.5t52.5 -32.5t97.5 -30q85 -19 138.5 -44t79 -63.5t25.5 -97.5
q0 -58 -28.5 -101.5t-80.5 -70t-122 -34.5v-69q0 -10 -7 -17t-17 -7h-61z" />
    <glyph glyph-name="percent" unicode="%" horiz-adv-x="784" 
d="M110 0q-21 0 -21 20q0 6 4 11l493 650q7 9 14 14t20 5h53q21 0 21 -20q0 -6 -4 -11l-493 -650q-7 -9 -13.5 -14t-20.5 -5h-53zM591 -6q-67 0 -106 37t-43 97q-1 26 -1 45t1 47q4 60 41.5 97t107.5 37q71 0 108.5 -37t40.5 -97q2 -28 2 -47t-2 -45q-3 -60 -42.5 -97
t-106.5 -37zM591 72q22 0 34.5 9t18.5 23t6 28q2 25 2 42.5t-2 40.5q-1 24 -14 43t-45 19q-31 0 -44 -19t-15 -43q-1 -23 -1 -40.5t1 -42.5q2 -14 7.5 -28t18 -23t33.5 -9zM192 348q-67 0 -106 35t-43 95q-1 26 -1 45.5t1 47.5q4 60 41.5 97t107.5 37q71 0 108.5 -37
t40.5 -97q2 -28 2 -47.5t-2 -45.5q-3 -60 -42.5 -95t-106.5 -35zM192 422q22 0 34.5 9t18.5 23t6 29q2 25 2 42.5t-2 40.5q-1 23 -14 42t-45 19q-31 0 -44 -19t-14 -42t-1 -40.5t1 -42.5q1 -15 6.5 -29t18 -23t33.5 -9z" />
    <glyph glyph-name="ampersand" unicode="&#x26;" horiz-adv-x="718" 
d="M293 -10q-73 0 -127.5 24.5t-85 70t-30.5 106.5q0 44 18 78.5t49.5 62t70.5 50.5q-43 45 -61 82t-18 75q0 46 24 84.5t69 62.5t110 24q61 0 104.5 -23t67.5 -61.5t24 -84.5q0 -42 -19.5 -74.5t-52.5 -58.5t-74 -49l144 -143q12 20 27 52.5t26 80.5q3 17 21 17h73
q9 0 14.5 -5.5t5.5 -14.5q-1 -21 -8.5 -46t-20 -53t-28.5 -55t-34 -51l106 -108q8 -7 8 -15t-5 -13t-14 -5h-96q-10 0 -16 3t-11 7l-55 54q-40 -35 -90.5 -54.5t-115.5 -19.5zM293 93q35 0 68 13t61 39l-160 158q-35 -19 -60.5 -45t-25.5 -63q0 -32 16.5 -54.5t43.5 -35
t57 -12.5zM292 433q27 15 50 30t36.5 33.5t13.5 41.5q0 34 -23 54t-58 20q-32 0 -56.5 -19.5t-24.5 -54.5q0 -15 5.5 -30t19 -32.5t37.5 -42.5z" />
    <glyph glyph-name="quotesingle" unicode="'" horiz-adv-x="230" 
d="M93 467q-13 0 -18 7.5t-7 17.5l-19 192q-2 12 4.5 19t17.5 7h88q11 0 17.5 -7t5.5 -19l-20 -192q-1 -10 -6.5 -17.5t-18.5 -7.5h-44z" />
    <glyph glyph-name="parenleft" unicode="(" horiz-adv-x="361" 
d="M313 -159q-66 0 -116 27t-82.5 83.5t-48.5 145.5t-16 212q0 124 16 212.5t48.5 145t82.5 83t116 26.5q10 0 17 -7t7 -17v-60q0 -10 -6.5 -17t-15.5 -7q-41 -2 -69 -23.5t-44.5 -65t-23.5 -110.5t-7 -160t7 -160t23.5 -111t44.5 -65.5t69 -23.5q9 0 15.5 -7t6.5 -17v-60
q0 -10 -7 -17t-17 -7z" />
    <glyph glyph-name="parenright" unicode=")" horiz-adv-x="361" 
d="M48 -159q-10 0 -17 7t-7 17v60q0 10 6.5 17t15.5 7q42 2 69.5 23.5t44 65.5t24 111t7.5 160t-7.5 160t-24 110.5t-44 65t-69.5 23.5q-9 0 -15.5 7t-6.5 17v60q0 10 7 17t17 7q66 0 116 -26.5t82.5 -83t48.5 -145t16 -212.5q0 -123 -16 -212t-48.5 -145.5t-82.5 -83.5
t-116 -27z" />
    <glyph glyph-name="asterisk" unicode="*" horiz-adv-x="445" 
d="M150 399l-58 43q-7 5 -8 14.5t3 15.5q0 1 6 7l68 60l-91 9q-4 1 -5.5 1.5t-2.5 0.5q-7 2 -11.5 10.5t-2.5 17.5l23 69q2 8 11 12t16 2q2 0 8 -4l79 -46l-20 89q-1 4 -1 5.5v2.5q0 8 6.5 15t15.5 7h73q9 0 15.5 -7t6.5 -15v-2.5t-1 -5.5l-21 -90l80 47q7 4 8 4
q8 2 16.5 -2t10.5 -12l23 -69q2 -9 -2 -17.5t-12 -10.5q-1 0 -2.5 -0.5t-5.5 -1.5l-92 -9l69 -60q6 -6 6 -7q5 -6 4 -15.5t-9 -14.5l-58 -43q-8 -4 -17 -3t-14 8q0 1 -1 2.5l-3 4.5l-37 85l-37 -85q-1 -3 -2.5 -4.5l-2.5 -2.5q-4 -7 -13.5 -8t-17.5 3z" />
    <glyph glyph-name="plus" unicode="+" horiz-adv-x="614" 
d="M278 33q-10 0 -17 7t-7 17v195h-192q-10 0 -17 7t-7 18v52q0 11 7 17.5t17 6.5h192v190q0 10 7 17t17 7h58q11 0 17.5 -7t6.5 -17v-190h192q10 0 17 -6.5t7 -17.5v-52q0 -11 -7 -18t-17 -7h-192v-195q0 -10 -6.5 -17t-17.5 -7h-58z" />
    <glyph glyph-name="comma" unicode="," horiz-adv-x="264" 
d="M60 -75q-9 0 -14 6t-4 15l27 170q2 13 9.5 22.5t22.5 9.5h92q8 0 13 -5.5t5 -13.5q0 -7 -3 -13l-64 -166q-4 -10 -11.5 -17.5t-21.5 -7.5h-51z" />
    <glyph glyph-name="hyphen" unicode="-" horiz-adv-x="481" 
d="M87 243q-11 0 -17.5 7t-6.5 17v66q0 10 6.5 17t17.5 7h307q10 0 17 -7t7 -17v-66q0 -10 -7 -17t-17 -7h-307z" />
    <glyph glyph-name="period" unicode="." horiz-adv-x="268" 
d="M84 0q-10 0 -17 7t-7 17v99q0 11 7 18t17 7h100q10 0 17 -7t7 -18v-99q0 -10 -7 -17t-17 -7h-100z" />
    <glyph glyph-name="slash" unicode="/" horiz-adv-x="508" 
d="M45 -84q-8 0 -14 6t-6 15q0 4 2 11l341 817q3 7 10 14t20 7h65q8 0 14.5 -6t6.5 -15q0 -4 -3 -11l-341 -817q-3 -6 -10 -13.5t-21 -7.5h-64z" />
    <glyph glyph-name="zero" unicode="0" horiz-adv-x="657" 
d="M328 -10q-71 0 -121 21t-82 58t-48 85.5t-19 103.5q-1 27 -1.5 59.5t0 65.5t1.5 61q2 55 19 103.5t49.5 84.5t82.5 57t119 21q70 0 120 -21t82.5 -57t49 -84.5t18.5 -103.5q2 -28 2 -61v-65.5t-2 -59.5q-2 -55 -18 -103.5t-48 -85.5t-82.5 -58t-121.5 -21zM328 105
q65 0 95.5 42.5t31.5 115.5q2 29 2 58.5v59.5t-2 57q-1 71 -31.5 114.5t-95.5 43.5q-64 0 -94.5 -43.5t-32.5 -114.5q0 -27 -0.5 -57t0 -59.5t0.5 -58.5q2 -73 33 -115.5t94 -42.5z" />
    <glyph glyph-name="one" unicode="1" horiz-adv-x="463" 
d="M277 0q-11 0 -17.5 7t-6.5 17v518l-152 -117q-9 -6 -18 -4.5t-16 10.5l-42 54q-6 9 -4.5 19t10.5 16l224 173q6 5 12 6t13 1h88q10 0 17 -7t7 -17v-652q0 -10 -7 -17t-17 -7h-91z" />
    <glyph glyph-name="two" unicode="2" horiz-adv-x="619" 
d="M69 0q-10 0 -17 7t-7 17v51q0 9 4.5 21.5t20.5 25.5l158 157q66 52 106.5 88.5t59 67t18.5 60.5q0 45 -24.5 73t-77.5 28q-35 0 -59 -14.5t-37.5 -38.5t-18.5 -53q-2 -13 -11 -18t-18 -5h-89q-9 0 -15 6t-6 14q1 43 18 83.5t49.5 72t79.5 50.5t106 19q83 0 137.5 -28
t82 -76t27.5 -108q0 -47 -18 -86.5t-52 -76t-82 -74.5l-142 -144h285q11 0 17.5 -6.5t6.5 -17.5v-71q0 -10 -6.5 -17t-17.5 -7h-478z" />
    <glyph glyph-name="three" unicode="3" horiz-adv-x="630" 
d="M311 -10q-70 0 -121 17t-84.5 44.5t-50.5 60t-18 64.5q0 9 6.5 14.5t15.5 5.5h90q10 0 17 -4t12 -16q9 -27 29.5 -43t47.5 -22.5t57 -6.5q60 0 95.5 28.5t35.5 81.5t-33 76.5t-92 23.5h-103q-11 0 -18 6.5t-7 17.5v42q0 10 4.5 17.5t9.5 12.5l179 175h-286q-11 0 -17.5 7
t-6.5 17v66q0 11 6.5 18t17.5 7h429q11 0 18 -7t7 -18v-60q0 -9 -4 -16t-9 -12l-173 -178l12 -1q61 -5 108.5 -27.5t74 -65.5t26.5 -108q0 -68 -35.5 -116.5t-97.5 -74.5t-142 -26z" />
    <glyph glyph-name="four" unicode="4" horiz-adv-x="652" 
d="M395 0q-10 0 -17 7t-7 17v128h-317q-11 0 -17.5 7t-6.5 17v68q0 6 2.5 14.5t8.5 15.5l295 409q13 17 37 17h109q10 0 17 -7t7 -17v-406h89q12 0 18.5 -6.5t6.5 -17.5v-70q0 -10 -7 -17t-17 -7h-90v-128q0 -10 -7 -17t-17 -7h-87zM169 266h205v289z" />
    <glyph glyph-name="five" unicode="5" horiz-adv-x="620" 
d="M306 -11q-86 0 -145 28.5t-89.5 74.5t-32.5 98q-1 9 5.5 14.5t15.5 5.5h93q11 0 18.5 -4.5t11.5 -15.5q10 -30 28.5 -49t43 -28t51.5 -9q36 0 65.5 14.5t47.5 43.5t18 71q0 37 -17 64t-46.5 42.5t-67.5 15.5q-28 0 -46 -7t-30.5 -16t-22 -16t-21.5 -7h-92q-9 0 -15.5 6.5
t-6.5 15.5l35 342q1 13 9 20t19 7h376q10 0 17 -7t7 -17v-67q0 -10 -7 -17t-17 -7h-289l-16 -163q18 12 48 23t83 11q48 0 91.5 -15.5t77.5 -45t53.5 -71t19.5 -94.5q0 -73 -34 -127t-95 -84t-144 -30z" />
    <glyph glyph-name="six" unicode="6" horiz-adv-x="627" 
d="M319 -10q-86 0 -148 32.5t-96 88t-34 124.5q0 31 8 60t21 55t25.5 46.5t22.5 32.5l183 251q4 5 12 12.5t22 7.5h93q9 0 15 -6.5t6 -15.5q0 -4 -1.5 -7.5t-3.5 -5.5l-140 -194q9 3 21 4t22 1q50 -1 95 -19.5t79 -50.5t53.5 -75t19.5 -94q0 -66 -33 -122.5t-94.5 -90.5
t-147.5 -34zM318 105q36 0 66.5 15t49.5 44t19 72q0 42 -19 71t-49.5 44t-66.5 15t-66.5 -15t-49.5 -44t-19 -71q0 -43 19 -72t49.5 -44t66.5 -15z" />
    <glyph glyph-name="seven" unicode="7" horiz-adv-x="543" 
d="M145 0q-9 0 -15 6.5t-6 15.5q0 4 2 9l241 550h-314q-11 0 -17.5 7t-6.5 17v70q0 11 6.5 18t17.5 7h439q11 0 17.5 -7t6.5 -18v-62q0 -14 -2.5 -23.5t-6.5 -19.5l-239 -546q-3 -7 -10.5 -15.5t-21.5 -8.5h-91z" />
    <glyph glyph-name="eight" unicode="8" horiz-adv-x="656" 
d="M328 -10q-66 0 -118 16t-87.5 45t-54 68t-18.5 87q0 58 28.5 100.5t74.5 65.5q-37 23 -57.5 59t-20.5 84q0 58 29.5 101.5t86 68.5t137.5 25t137 -24.5t85 -68t29 -101.5q0 -48 -20 -84t-56 -60q47 -22 75 -65.5t28 -101.5q0 -63 -32.5 -111.5t-95 -76t-150.5 -27.5z
M328 94q39 0 70.5 13.5t50 38.5t18.5 59q0 35 -18.5 59.5t-50 38t-70.5 13.5t-70.5 -13.5t-50 -38t-18.5 -59.5q0 -34 18.5 -59t50 -38.5t70.5 -13.5zM328 415q33 1 60.5 13t44 33t16.5 49q0 29 -15.5 50.5t-43 33.5t-62.5 12t-62.5 -12t-43 -33.5t-15.5 -50.5t15.5 -50
t43 -33t62.5 -12z" />
    <glyph glyph-name="nine" unicode="9" horiz-adv-x="617" 
d="M184 0q-9 0 -15 6.5t-6 15.5q0 5 1.5 8l2.5 5l147 203q-19 -5 -41 -4q-51 1 -94.5 19.5t-76 50t-51 73t-18.5 90.5q0 45 17 88.5t50.5 78.5t84 55.5t118.5 20.5q67 0 118 -19t85.5 -52.5t52 -76.5t17.5 -91q0 -43 -14 -80t-34.5 -67.5t-40.5 -59.5l-176 -244
q-4 -5 -11.5 -12.5t-22.5 -7.5h-93zM304 340q36 0 65.5 15.5t47 44t17.5 67.5q0 40 -17.5 68.5t-47.5 44t-65 15.5q-36 0 -65.5 -15.5t-47 -44t-17.5 -68.5q0 -39 17.5 -67.5t47 -44t65.5 -15.5z" />
    <glyph glyph-name="colon" unicode=":" horiz-adv-x="274" 
d="M87 350q-10 0 -17 7t-7 17v95q0 11 7 18t17 7h99q11 0 18 -7t7 -18v-95q0 -10 -7 -17t-18 -7h-99zM87 0q-10 0 -17 7t-7 17v95q0 11 7 18t17 7h99q11 0 18 -7t7 -18v-95q0 -10 -7 -17t-18 -7h-99z" />
    <glyph glyph-name="semicolon" unicode=";" horiz-adv-x="286" 
d="M69 -75q-8 0 -13 6t-4 15l26 170q2 13 9.5 22.5t22.5 9.5h92q8 0 13 -5.5t5 -13.5q0 -7 -3 -13l-64 -166q-4 -10 -11 -17.5t-22 -7.5h-51zM100 350q-11 0 -17.5 7t-6.5 17v95q0 11 6.5 18t17.5 7h99q10 0 17.5 -7t7.5 -18v-95q0 -10 -7.5 -17t-17.5 -7h-99z" />
    <glyph glyph-name="less" unicode="&#x3c;" horiz-adv-x="504" 
d="M420 16q-4 0 -10 3l-10 5l-338 231q-15 10 -22 20t-7 24v25q0 14 7 24t22 20l338 231l10 5t10 3q8 0 14 -5.5t6 -14.5v-76q0 -14 -7 -22t-18 -14l-243 -163l243 -164q11 -7 18 -14.5t7 -21.5v-76q0 -9 -6 -14.5t-14 -5.5z" />
    <glyph glyph-name="equal" unicode="=" horiz-adv-x="568" 
d="M90 373q-10 0 -17 7t-7 17v56q0 10 7 17t17 7h387q11 0 18 -7t7 -17v-56q0 -10 -7 -17t-18 -7h-387zM90 123q-10 0 -17 7t-7 17v56q0 10 7 17t17 7h387q11 0 18 -7t7 -17v-56q0 -10 -7 -17t-18 -7h-387z" />
    <glyph glyph-name="greater" unicode="&#x3e;" horiz-adv-x="504" 
d="M84 16q-8 0 -14 5.5t-6 15.5v75q0 15 7 22.5t18 13.5l243 164l-243 163q-11 7 -18 14.5t-7 21.5v76q0 10 6 15t14 5q5 0 11 -2.5t10 -5.5l337 -231q15 -10 22 -19.5t7 -24.5v-24q0 -15 -7 -25t-22 -20l-337 -231l-10 -5t-11 -3z" />
    <glyph glyph-name="question" unicode="?" horiz-adv-x="564" 
d="M238 188q-8 0 -14 5.5t-6 14.5v16v16q4 39 21.5 69.5t41 56t47 48.5t40 45.5t19.5 46.5q3 29 -11.5 49t-39 30.5t-51.5 10.5q-47 0 -77 -23t-41 -74q-3 -12 -10 -17.5t-19 -5.5h-85q-9 0 -15.5 6.5t-6.5 17.5q1 40 18.5 77.5t51 67.5t81.5 47.5t110 17.5
q68 0 114.5 -17.5t74 -45.5t39.5 -60.5t11 -63.5q-2 -38 -17 -68t-37 -55.5t-45 -50t-40.5 -49.5t-23.5 -53q-2 -9 -3 -17.5t-2 -16.5q-4 -12 -10 -18.5t-17 -6.5h-98zM235 0q-10 0 -17 7t-7 17v87q0 11 7 18t17 7h97q11 0 18 -7t7 -18v-87q0 -10 -7 -17t-18 -7h-97z" />
    <glyph glyph-name="at" unicode="@" horiz-adv-x="838" 
d="M420 -124q-115 0 -193 38t-120.5 108t-51.5 164q-1 14 -2 37.5t-1 49.5t1 48.5t2 35.5q6 66 32 123.5t70.5 99.5t108 66t146.5 24q97 0 165.5 -22.5t113 -64t67 -99t27.5 -127.5q2 -23 2 -48t-0.5 -46.5t-1.5 -33.5q-3 -49 -22.5 -82.5t-51 -50.5t-71.5 -17
q-33 0 -56.5 10t-38 22.5t-21.5 21.5q-8 -13 -22 -28t-39.5 -25.5t-66.5 -10.5q-75 0 -118.5 54t-43.5 150t43 150.5t117 54.5q40 0 63.5 -14t37.5 -33v15q0 10 7 17t17 7h40q10 0 17 -7t7 -17v-208q0 -38 16 -56.5t41 -18.5q24 0 36.5 12.5t17 30.5t4.5 32q1 18 1.5 49
t-1.5 65q-5 78 -34.5 130t-90 78.5t-161.5 26.5q-84 0 -141 -29t-88.5 -81.5t-40.5 -124.5q-2 -17 -2.5 -48t0 -62.5t2.5 -50.5q12 -110 80.5 -171t197.5 -61q67 0 106.5 10t62.5 23.5t38 25.5q7 5 13.5 9t15.5 4h55q10 0 17 -6.5t7 -16.5q0 -4 -2 -7.5t-4 -7.5
q-27 -30 -68 -57t-100 -43.5t-141 -16.5zM408 153q47 0 67 31t20 89t-20 89.5t-67 31.5q-45 0 -66 -31.5t-21 -89.5q0 -35 9.5 -62.5t28.5 -42.5t49 -15z" />
    <glyph glyph-name="A" unicode="A" horiz-adv-x="693" 
d="M35 0q-8 0 -14.5 6t-6.5 15q0 4 2 9l241 645q3 10 11.5 17.5t23.5 7.5h109q15 0 23 -7.5t12 -17.5l241 -645q1 -5 1 -9q0 -9 -6 -15t-14 -6h-87q-14 0 -20.5 6.5t-8.5 12.5l-47 122h-297l-47 -122q-2 -6 -8.5 -12.5t-20.5 -6.5h-87zM233 256h227l-114 309z" />
    <glyph glyph-name="B" unicode="B" horiz-adv-x="686" 
d="M102 0q-10 0 -17 7t-7 17v651q0 11 7 18t17 7h290q81 0 132 -24.5t75.5 -67.5t24.5 -100q0 -38 -13.5 -66.5t-33 -46.5t-38.5 -28q39 -18 69 -60t30 -100q0 -60 -27 -107t-80 -73.5t-131 -26.5h-298zM217 106h167q54 0 82 29.5t28 71.5q0 44 -28.5 73t-81.5 29h-167v-203
zM217 413h157q53 0 79.5 25.5t26.5 66.5q0 42 -26.5 66t-79.5 24h-157v-182z" />
    <glyph glyph-name="C" unicode="C" horiz-adv-x="684" 
d="M348 -10q-93 0 -157.5 32.5t-98.5 93t-38 145.5q-1 41 -1 88t1 90q4 84 38.5 145t99 93.5t156.5 32.5q68 0 122 -18t92 -49.5t59 -73.5t22 -91q1 -9 -5.5 -15t-15.5 -6h-95q-11 0 -18 5.5t-10 18.5q-16 66 -55 90t-97 24q-67 0 -107 -37.5t-43 -123.5q-3 -82 0 -168
t43 -123.5t107 -37.5q58 0 97.5 24.5t54.5 89.5q3 14 10 19t18 5h95q9 0 15.5 -6t5.5 -15q-1 -49 -22 -91t-59 -73.5t-92 -49.5t-122 -18z" />
    <glyph glyph-name="D" unicode="D" horiz-adv-x="703" 
d="M102 0q-10 0 -17 7t-7 17v651q0 11 7 18t17 7h244q101 0 166.5 -31t99 -92t34.5 -149q2 -44 2 -78t-2 -77q-2 -93 -34 -153.5t-96.5 -90t-164.5 -29.5h-249zM217 115h129q56 0 91 16t51.5 51.5t17.5 93.5q1 30 1.5 52.5t0 45t-1.5 51.5q-2 82 -41 121t-124 39h-124v-470z
" />
    <glyph glyph-name="E" unicode="E" horiz-adv-x="622" 
d="M102 0q-10 0 -17 7t-7 17v651q0 11 7 18t17 7h440q11 0 18 -7t7 -18v-66q0 -10 -7 -17t-18 -7h-329v-177h307q11 0 18 -6.5t7 -17.5v-62q0 -11 -7 -17.5t-18 -6.5h-307v-183h337q11 0 18 -7t7 -18v-66q0 -10 -7 -17t-18 -7h-448z" />
    <glyph glyph-name="F" unicode="F" horiz-adv-x="601" 
d="M102 0q-10 0 -17 7t-7 17v651q0 11 7 18t17 7h434q11 0 18 -7t7 -18v-70q0 -11 -7 -17.5t-18 -6.5h-321v-190h301q11 0 18 -7t7 -18v-70q0 -10 -7 -17t-18 -7h-301v-248q0 -10 -7 -17t-18 -7h-88z" />
    <glyph glyph-name="G" unicode="G" horiz-adv-x="700" 
d="M350 -10q-92 0 -156.5 32t-100 92.5t-38.5 144.5q-1 43 -1 92.5t1 93.5q3 83 38.5 142t101 91t155.5 32q73 0 128 -19.5t91.5 -50t55 -65.5t19.5 -65q1 -9 -5 -15t-16 -6h-103q-10 0 -15 4t-9 12q-8 21 -25 41.5t-46 34.5t-75 14q-68 0 -108.5 -36t-43.5 -119
q-3 -87 0 -176q3 -85 44.5 -122t109.5 -37q45 0 80.5 16t56 50t20.5 87v31h-122q-10 0 -17 7t-7 18v53q0 11 7 18t17 7h239q11 0 17.5 -7t6.5 -18v-105q0 -84 -36.5 -145t-104 -94t-159.5 -33z" />
    <glyph glyph-name="H" unicode="H" horiz-adv-x="729" 
d="M102 0q-10 0 -17 6.5t-7 17.5v651q0 11 7 18t17 7h91q11 0 17.5 -7t6.5 -18v-258h295v258q0 11 7 18t17 7h90q11 0 18 -7t7 -18v-651q0 -10 -7 -17t-18 -7h-90q-10 0 -17 7t-7 17v268h-295v-268q0 -10 -6.5 -17t-17.5 -7h-91z" />
    <glyph glyph-name="I" unicode="I" horiz-adv-x="299" 
d="M102 0q-10 0 -17 7t-7 17v652q0 10 7 17t17 7h94q11 0 17.5 -7t6.5 -17v-652q0 -10 -6.5 -17t-17.5 -7h-94z" />
    <glyph glyph-name="J" unicode="J" horiz-adv-x="652" 
d="M304 -10q-54 0 -102.5 13.5t-86.5 41.5t-60.5 69t-23.5 97q0 9 6 15.5t15 6.5h95q13 0 19.5 -7t10.5 -19q5 -36 23 -58.5t45.5 -33t61.5 -10.5q63 0 96.5 41t33.5 114v322h-339q-11 0 -17.5 7t-6.5 17v70q0 10 6.5 17t17.5 7h457q11 0 18 -7t7 -18v-419q0 -83 -34.5 -143
t-96 -91.5t-145.5 -31.5z" />
    <glyph glyph-name="K" unicode="K" horiz-adv-x="632" 
d="M102 0q-10 0 -17 7t-7 17v651q0 11 7 18t17 7h88q11 0 18 -7t7 -18v-234l226 241q4 5 13.5 11.5t25.5 6.5h99q8 0 14.5 -6t6.5 -15q0 -7 -4 -12l-275 -302l294 -331q5 -6 5 -13q0 -9 -6.5 -15t-14.5 -6h-103q-17 0 -26.5 7.5t-12.5 10.5l-242 265v-259q0 -10 -7 -17
t-18 -7h-88z" />
    <glyph glyph-name="L" unicode="L" horiz-adv-x="580" 
d="M102 0q-10 0 -17 7t-7 17v652q0 10 7 17t17 7h93q10 0 17 -7t7 -17v-557h317q11 0 18 -7t7 -18v-70q0 -10 -7 -17t-18 -7h-434z" />
    <glyph glyph-name="M" unicode="M" horiz-adv-x="811" 
d="M103 0q-11 0 -18 7t-7 17v651q0 11 7 18t18 7h79q14 0 21 -7.5t9 -11.5l193 -360l195 360q2 4 9 11.5t21 7.5h78q11 0 18 -7t7 -18v-651q0 -10 -7 -17t-18 -7h-84q-11 0 -17.5 7t-6.5 17v433l-140 -267q-5 -9 -13 -15.5t-21 -6.5h-41q-14 0 -21.5 6.5t-12.5 15.5
l-140 267v-433q0 -10 -7 -17t-17 -7h-84z" />
    <glyph glyph-name="N" unicode="N" horiz-adv-x="707" 
d="M102 0q-10 0 -17 7t-7 17v651q0 11 7 18t17 7h77q14 0 20.5 -6.5t8.5 -9.5l288 -448v439q0 11 6.5 18t17.5 7h84q11 0 18 -7t7 -18v-650q0 -11 -7 -18t-17 -7h-78q-14 0 -20 7t-9 9l-287 438v-430q0 -10 -7 -17t-18 -7h-84z" />
    <glyph glyph-name="O" unicode="O" horiz-adv-x="695" 
d="M347 -10q-89 0 -153 29.5t-100 91t-39 153.5q-1 43 -1 85t1 86q3 91 40 152t101.5 92t150.5 31t151 -31t102 -92t40 -152q2 -44 2 -86t-2 -85q-3 -92 -39 -153.5t-100.5 -91t-153.5 -29.5zM347 105q65 0 106 38.5t44 125.5q2 44 2 81.5t-2 80.5q-2 58 -21.5 94.5
t-52.5 53t-76 16.5q-42 0 -75 -16.5t-52.5 -53t-21.5 -94.5q-1 -43 -1 -80.5t1 -81.5q3 -87 44 -125.5t105 -38.5z" />
    <glyph glyph-name="P" unicode="P" horiz-adv-x="659" 
d="M102 0q-10 0 -17 7t-7 17v651q0 11 7 18t17 7h268q78 0 136 -24.5t90 -74t32 -123.5q0 -75 -32 -123.5t-90 -72.5t-136 -24h-149v-234q0 -10 -6.5 -17t-17.5 -7h-95zM219 369h146q58 0 89 27.5t31 81.5q0 50 -29 80.5t-91 30.5h-146v-220z" />
    <glyph glyph-name="Q" unicode="Q" horiz-adv-x="695" 
d="M527 -65q-14 0 -22.5 8.5t-13.5 14.5l-37 50q-47 -18 -107 -18q-89 0 -153.5 29.5t-100 91t-39.5 153.5q-1 43 -1 85t1 86q4 91 40.5 152t101.5 92t151 31t151 -31t102 -92t39 -152q2 -44 2 -86t-2 -85q-5 -131 -72 -199l70 -99q1 -1 2 -3.5t1 -6.5q1 -9 -5.5 -15
t-14.5 -6h-93zM347 105q64 0 105 38.5t44 125.5q2 44 2 81.5t-2 80.5q-1 58 -21 94.5t-52.5 53t-75.5 16.5q-42 0 -75 -16.5t-52.5 -53t-22.5 -94.5q-1 -43 -1 -80.5t1 -81.5q4 -87 45 -125.5t105 -38.5z" />
    <glyph glyph-name="R" unicode="R" horiz-adv-x="673" 
d="M102 0q-10 0 -17 7t-7 17v651q0 11 7 18t17 7h259q121 0 191 -56t70 -163q0 -74 -36.5 -123t-97.5 -71l146 -255q3 -6 3 -11q0 -9 -6.5 -15t-14.5 -6h-91q-17 0 -26 9t-14 18l-129 237h-139v-240q0 -10 -6.5 -17t-17.5 -7h-91zM217 377h141q61 0 91 27.5t30 77.5
t-29.5 78.5t-91.5 28.5h-141v-212z" />
    <glyph glyph-name="S" unicode="S" horiz-adv-x="642" 
d="M321 -10q-93 0 -155.5 27.5t-95 72t-34.5 93.5q0 9 6 15t15 6h89q13 0 19.5 -5.5t11.5 -13.5q6 -19 23 -37.5t46.5 -30.5t74.5 -12q72 0 107.5 24t35.5 65q0 29 -19 46.5t-58.5 32t-104.5 30.5q-75 18 -125.5 43.5t-76 64.5t-25.5 99q0 58 31.5 103t90 71t139.5 26
q65 0 115 -17.5t83 -46t50.5 -61t18.5 -63.5q0 -8 -5.5 -14.5t-15.5 -6.5h-93q-8 0 -16 4t-13 15q-6 31 -39 53t-85 22q-54 0 -87 -20t-33 -62q0 -28 16.5 -46.5t53 -32.5t96.5 -30q85 -19 139 -44t79 -63.5t25 -97.5q0 -66 -35.5 -112.5t-99.5 -71.5t-149 -25z" />
    <glyph glyph-name="T" unicode="T" horiz-adv-x="605" 
d="M256 0q-10 0 -17 7t-7 17v553h-185q-10 0 -17 7t-7 17v74q0 11 7 18t17 7h510q11 0 18 -7t7 -18v-74q0 -10 -7 -17t-18 -7h-184v-553q0 -10 -7 -17t-18 -7h-92z" />
    <glyph glyph-name="U" unicode="U" horiz-adv-x="713" 
d="M357 -10q-87 0 -151 29.5t-99 91t-35 157.5v407q0 11 7 18t17 7h91q11 0 17.5 -7t6.5 -18v-407q0 -82 39 -121.5t107 -39.5t106.5 39.5t38.5 121.5v407q0 11 7 18t18 7h90q11 0 17.5 -7t6.5 -18v-407q0 -96 -34.5 -157.5t-98 -91t-151.5 -29.5z" />
    <glyph glyph-name="V" unicode="V" horiz-adv-x="674" 
d="M282 0q-16 0 -25 8t-13 20l-214 642q-2 5 -2 9q0 9 6 15t15 6h88q14 0 21.5 -7.5t9.5 -14.5l169 -515l169 515q2 7 9.5 14.5t21.5 7.5h88q8 0 14.5 -6t6.5 -15q0 -4 -2 -9l-214 -642q-4 -12 -13 -20t-25 -8h-110z" />
    <glyph glyph-name="W" unicode="W" horiz-adv-x="816" 
d="M193 0q-15 0 -23.5 8.5t-11.5 21.5l-119 641q0 3 -0.5 5t-0.5 3q0 9 6.5 15t14.5 6h88q25 0 28 -20l83 -453l90 293q3 8 10.5 16.5t22.5 8.5h54q16 0 23 -8.5t9 -16.5l91 -292l83 452q3 20 28 20h88q8 0 14 -6t6 -15v-3t-1 -5l-119 -641q-2 -13 -11 -21.5t-24 -8.5h-67
q-15 0 -23.5 8t-11.5 17l-112 334l-112 -334q-4 -9 -12 -17t-24 -8h-67z" />
    <glyph glyph-name="X" unicode="X" horiz-adv-x="662" 
d="M39 0q-9 0 -15 6t-6 15q0 3 1 6l2 6l224 324l-210 310q-3 6 -3 12q0 9 6 15t15 6h102q12 0 19 -6t12 -13l147 -216l148 216q4 7 11.5 13t19.5 6h97q9 0 15 -6t6 -15q0 -6 -4 -12l-209 -310l224 -324q2 -3 3 -6t1 -6q0 -9 -6.5 -15t-14.5 -6h-106q-12 0 -19 6t-11 12
l-160 226l-157 -226q-4 -6 -11 -12t-20 -6h-101z" />
    <glyph glyph-name="Y" unicode="Y" horiz-adv-x="664" 
d="M286 0q-10 0 -17 7t-7 17v226l-236 418q-1 2 -2 5t-1 6q0 9 6 15t14 6h89q12 0 19.5 -6t10.5 -13l170 -291l169 291q4 7 11.5 13t19.5 6h88q9 0 15 -6t6 -15q0 -3 -0.5 -6t-2.5 -5l-236 -418v-226q0 -10 -7 -17t-18 -7h-91z" />
    <glyph glyph-name="Z" unicode="Z" horiz-adv-x="625" 
d="M63 0q-10 0 -17 7t-7 18v70q0 15 6 24t9 13l348 450h-329q-11 0 -17.5 7t-6.5 17v69q0 11 6.5 18t17.5 7h478q11 0 18 -7t7 -18v-69q0 -12 -4 -20t-9 -15l-341 -452h340q11 0 18 -7t7 -18v-70q0 -10 -7 -17t-18 -7h-499z" />
    <glyph glyph-name="bracketleft" unicode="[" horiz-adv-x="354" 
d="M91 -159q-10 0 -17 7t-7 17v887q0 10 7 17t17 7h213q10 0 17 -7t7 -17v-61q0 -10 -7 -17t-17 -7h-115v-710h115q10 0 17 -7t7 -17v-68q0 -10 -7 -17t-17 -7h-213z" />
    <glyph glyph-name="backslash" unicode="\" horiz-adv-x="507" 
d="M399 -84q-14 0 -21 7.5t-10 13.5l-342 817q-2 7 -2 11q0 9 6 15t14 6h65q14 0 21.5 -7t9.5 -14l340 -817q3 -7 3 -11q0 -9 -6.5 -15t-14.5 -6h-63z" />
    <glyph glyph-name="bracketright" unicode="]" horiz-adv-x="354" 
d="M50 -159q-10 0 -17 7t-7 17v68q0 10 7 17t17 7h115v710h-115q-10 0 -17 7t-7 17v61q0 10 7 17t17 7h213q11 0 17.5 -7t6.5 -17v-887q0 -10 -6.5 -17t-17.5 -7h-213z" />
    <glyph glyph-name="asciicircum" unicode="^" horiz-adv-x="448" 
d="M71 583q-15 0 -15 13q0 8 10 17l97 100q10 11 17.5 13.5t16.5 2.5h54q10 0 17 -2.5t17 -13.5l98 -100q9 -9 9 -17q0 -13 -15 -13h-37q-8 0 -16 1.5t-15 5.5l-85 53l-85 -53q-6 -4 -14.5 -5.5t-16.5 -1.5h-37z" />
    <glyph glyph-name="underscore" unicode="_" horiz-adv-x="742" 
d="M77 -56q-10 0 -17 6.5t-7 17.5v66q0 10 7 17t17 7h587q11 0 17.5 -7t6.5 -17v-66q0 -11 -6.5 -17.5t-17.5 -6.5h-587z" />
    <glyph glyph-name="grave" unicode="`" horiz-adv-x="367" 
d="M228 595q-12 0 -19.5 3t-15.5 10l-125 102q-5 5 -5 12q0 19 19 19h100q13 0 20.5 -3.5t16.5 -14.5l82 -99q5 -5 5 -13q0 -16 -16 -16h-62z" />
    <glyph glyph-name="a" unicode="a" horiz-adv-x="571" 
d="M217 -10q-52 0 -94 20.5t-66.5 55t-24.5 77.5q0 70 57 111.5t149 55.5l137 20v21q0 42 -21 65t-72 23q-36 0 -58.5 -14.5t-33.5 -38.5q-8 -13 -23 -13h-79q-11 0 -16.5 6t-5.5 16q1 16 13.5 39t38 44.5t66.5 36.5t99 15q63 0 106.5 -15.5t69.5 -41.5t38 -61t12 -74v-314
q0 -10 -7 -17t-17 -7h-81q-11 0 -17.5 7t-6.5 17v39q-13 -18 -35 -35t-53.5 -27.5t-74.5 -10.5zM251 85q35 0 63.5 15t45 46.5t16.5 79.5v21l-100 -16q-59 -9 -88 -29t-29 -49q0 -22 13.5 -37.5t34.5 -23t44 -7.5z" />
    <glyph glyph-name="b" unicode="b" horiz-adv-x="613" 
d="M354 -10q-58 0 -96.5 20t-63.5 51v-37q0 -10 -6.5 -17t-17.5 -7h-79q-10 0 -17 7t-7 17v662q0 10 7 17t17 7h85q11 0 17.5 -7t6.5 -17v-222q25 29 62.5 47.5t91.5 18.5q53 0 92 -18t65.5 -50.5t40.5 -75.5t15 -93q1 -18 1 -32.5t-1 -32.5q-2 -52 -16 -95.5t-40 -75.5
t-65 -49.5t-92 -17.5zM317 97q43 0 67 18.5t35 48.5t13 66q1 30 0 60q-2 36 -13 66t-35 48.5t-67 18.5q-40 0 -65 -18t-38 -45.5t-14 -57.5q-1 -18 -1 -38.5t1 -38.5q2 -31 13.5 -60.5t37 -48.5t66.5 -19z" />
    <glyph glyph-name="c" unicode="c" horiz-adv-x="571" 
d="M291 -10q-72 0 -126.5 27t-85 78.5t-33.5 124.5q-1 15 -1 39.5t1 40.5q3 73 33.5 124.5t85 78.5t126.5 27q64 0 109 -17.5t74 -45t43.5 -57t15.5 -53.5q1 -11 -6.5 -17.5t-17.5 -6.5h-88q-10 0 -15.5 5t-10.5 15q-15 40 -39.5 56.5t-62.5 16.5q-50 0 -79.5 -31.5
t-31.5 -99.5q-2 -38 0 -70q2 -69 31.5 -100t79.5 -31q39 0 63 16.5t39 56.5q5 10 10.5 15t15.5 5h88q10 0 17.5 -6.5t6.5 -17.5q-1 -18 -9.5 -40.5t-27 -46t-46.5 -43t-67.5 -31.5t-91.5 -12z" />
    <glyph glyph-name="d" unicode="d" horiz-adv-x="613" 
d="M259 -10q-52 0 -91.5 17.5t-65.5 49.5t-40 75.5t-16 95.5q-1 18 -1 32.5t1 32.5q2 50 15.5 93t40 75.5t66 50.5t91.5 18q54 0 91.5 -18.5t62.5 -47.5v222q0 10 6.5 17t17.5 7h85q10 0 17 -7t7 -17v-662q0 -10 -7 -17t-17 -7h-79q-11 0 -17.5 7t-6.5 17v37
q-25 -31 -63.5 -51t-96.5 -20zM296 97q42 0 67 19t37 48.5t13 60.5q1 18 1 38.5t-1 38.5q-1 30 -14 57.5t-38 45.5t-65 18q-42 0 -66.5 -18.5t-35.5 -48.5t-13 -66q-1 -30 0 -60q2 -36 13 -66t35.5 -48.5t66.5 -18.5z" />
    <glyph glyph-name="e" unicode="e" horiz-adv-x="577" 
d="M290 -10q-111 0 -176 64t-70 182q-1 10 -1 25.5t1 24.5q4 76 34.5 130.5t84.5 84t127 29.5q81 0 136 -33.5t83 -93t28 -137.5v-21q0 -10 -7 -17t-18 -7h-332v-3v-5q1 -35 13.5 -64.5t37 -47.5t58.5 -18q28 0 47 8.5t31 19.5t17 18q9 12 14.5 14.5t16.5 2.5h86
q10 0 16.5 -6t5.5 -15q-1 -16 -16.5 -39t-44.5 -45t-72.5 -36.5t-99.5 -14.5zM180 305h221v3q0 39 -13 68.5t-38 46t-60 16.5t-60 -16.5t-37.5 -46t-12.5 -68.5v-3z" />
    <glyph glyph-name="f" unicode="f" horiz-adv-x="414" 
d="M146 0q-10 0 -17 7t-7 17v390h-81q-10 0 -17 7t-7 18v57q0 10 7 17t17 7h81v41q0 60 22 99.5t65 59.5t109 20h68q11 0 17.5 -7t6.5 -17v-57q0 -11 -6.5 -18t-17.5 -7h-64q-40 0 -55 -20t-15 -58v-36h124q11 0 17.5 -7t6.5 -17v-57q0 -11 -6.5 -18t-17.5 -7h-124v-390
q0 -10 -7 -17t-17 -7h-82z" />
    <glyph glyph-name="g" unicode="g" horiz-adv-x="616" 
d="M301 -220q-73 0 -120 19t-74 46t-38.5 53.5t-12.5 41.5q-1 10 6.5 17.5t17.5 7.5h87q10 0 16 -4.5t10 -16.5q6 -13 16 -28t30.5 -25.5t56.5 -10.5q38 0 64 11t39.5 37t13.5 72v68q-24 -29 -61.5 -47t-92.5 -18q-53 0 -92.5 17.5t-65.5 49t-39.5 74.5t-15.5 95q-1 27 0 54
q2 50 15.5 93t39.5 75.5t65.5 50.5t92.5 18q57 0 96 -21.5t64 -53.5v40q0 11 7 18t17 7h81q10 0 17 -7t7 -18l1 -482q0 -72 -27 -124t-81.5 -80.5t-139.5 -28.5zM296 109q41 0 66 18t37 47t14 59q1 13 1 33t-1 32q-2 31 -14 59.5t-37 47t-66 18.5t-66 -18.5t-35.5 -48.5
t-12.5 -66q-2 -24 0 -49q2 -35 12.5 -65.5t35.5 -48.5t66 -18z" />
    <glyph glyph-name="h" unicode="h" horiz-adv-x="629" 
d="M91 0q-10 0 -17 7t-7 17v662q0 10 7 17t17 7h89q11 0 17.5 -7t6.5 -17v-228q27 32 66 52t96 20q61 0 106.5 -27.5t70.5 -77.5t25 -120v-281q0 -10 -7 -17t-17 -7h-90q-10 0 -17 7t-7 17v275q0 58 -28.5 91t-82.5 33q-52 0 -83.5 -33t-31.5 -91v-275q0 -10 -6.5 -17
t-17.5 -7h-89z" />
    <glyph glyph-name="i" unicode="i" horiz-adv-x="264" 
d="M90 0q-10 0 -17 7t-7 17v472q0 10 7 17t17 7h83q11 0 17.5 -7t6.5 -17v-472q0 -10 -6.5 -17t-17.5 -7h-83zM86 606q-10 0 -17 7t-7 17v72q0 10 7 17t17 7h91q11 0 18 -7t7 -17v-72q0 -10 -7 -17t-18 -7h-91z" />
    <glyph glyph-name="j" unicode="j" horiz-adv-x="279" 
d="M-20 -190q-10 0 -17 7t-7 17v58q0 10 7 17t17 7h26q31 0 46 11t20 30.5t5 43.5v495q0 10 7 17t17 7h87q10 0 17 -7t7 -17v-497q0 -59 -21.5 -101t-64 -65t-108.5 -23h-38zM97 606q-11 0 -17.5 7t-6.5 17v72q0 10 6.5 17t17.5 7h94q11 0 18 -7t7 -17v-72q0 -10 -7 -17
t-18 -7h-94z" />
    <glyph glyph-name="k" unicode="k" horiz-adv-x="550" 
d="M91 0q-10 0 -17 7t-7 17v662q0 10 7 17t17 7h81q11 0 17.5 -7t6.5 -17v-342l168 159q10 8 16.5 12.5t20.5 4.5h93q10 0 16 -6t6 -16q0 -4 -2 -9t-8 -9l-206 -193l231 -248q10 -10 10 -17q0 -10 -6.5 -16t-15.5 -6h-95q-15 0 -21.5 4.5t-15.5 12.5l-191 201v-194
q0 -10 -6.5 -17t-17.5 -7h-81z" />
    <glyph glyph-name="l" unicode="l" horiz-adv-x="265" 
d="M91 0q-10 0 -17 7t-7 17v662q0 10 7 17t17 7h83q10 0 17 -7t7 -17v-662q0 -10 -7 -17t-17 -7h-83z" />
    <glyph glyph-name="m" unicode="m" horiz-adv-x="902" 
d="M90 0q-10 0 -17 7t-7 17v472q0 10 7 17t17 7h78q10 0 17 -7t7 -17v-34q21 28 56.5 47.5t84.5 20.5q114 2 159 -89q23 40 66.5 64.5t96.5 24.5q52 0 94.5 -24t67 -72.5t24.5 -122.5v-287q0 -10 -7 -17t-17 -7h-82q-10 0 -17 7t-7 17v279q0 45 -13 71.5t-35 37.5t-49 11
q-22 0 -44 -11t-36 -37.5t-14 -71.5v-279q0 -10 -7 -17t-17 -7h-82q-10 0 -17 7t-7 17v279q0 45 -14 71.5t-36 37.5t-47 11q-23 0 -45 -11.5t-36 -37.5t-14 -71v-279q0 -10 -7 -17t-17 -7h-84z" />
    <glyph glyph-name="n" unicode="n" horiz-adv-x="624" 
d="M90 0q-10 0 -17 7t-7 17v472q0 10 7 17t17 7h82q10 0 17 -7t7 -17v-41q26 32 66.5 53.5t100.5 21.5q61 0 106 -27.5t69.5 -77.5t24.5 -120v-281q0 -10 -7 -17t-17 -7h-88q-10 0 -17 7t-7 17v275q0 58 -28.5 91t-82.5 33q-52 0 -83 -33t-31 -91v-275q0 -10 -7 -17t-17 -7
h-88z" />
    <glyph glyph-name="o" unicode="o" horiz-adv-x="592" 
d="M296 -10q-80 0 -134.5 28t-83 79t-32.5 119q-1 18 -1 44t1 44q4 69 33.5 119.5t84 78.5t132.5 28t132.5 -28t84 -78.5t33.5 -119.5q1 -18 1 -44t-1 -44q-4 -68 -32.5 -119t-83 -79t-134.5 -28zM296 89q53 0 82 33.5t32 98.5q1 15 1 39t-1 39q-3 65 -32 98.5t-82 33.5
t-82 -33.5t-32 -98.5q-1 -15 -1 -39t1 -39q3 -65 32 -98.5t82 -33.5z" />
    <glyph glyph-name="p" unicode="p" horiz-adv-x="614" 
d="M91 -190q-10 0 -17 7t-7 17v662q0 10 7 17t17 7h79q11 0 17.5 -7t6.5 -17v-40q24 32 63 53t97 21q53 0 92 -17t65 -48.5t40 -74.5t16 -95q1 -17 1 -35t-1 -36q-1 -50 -15 -92.5t-40.5 -74t-65.5 -49.5t-92 -18q-54 0 -92 19.5t-62 51.5v-227q0 -10 -6.5 -17t-17.5 -7h-85
zM317 97q43 0 67 18.5t35 48.5t13 66q1 30 0 60q-2 36 -13 66t-35 48.5t-67 18.5q-41 0 -66.5 -19t-37 -48.5t-13.5 -60.5q-1 -18 -1 -38t1 -39q1 -30 14 -57.5t38 -45.5t65 -18z" />
    <glyph glyph-name="q" unicode="q" horiz-adv-x="614" 
d="M437 -190q-10 0 -17 7t-7 17v227q-24 -32 -62 -51.5t-92 -19.5q-51 0 -90.5 18t-66 49.5t-40.5 74t-16 92.5q-1 18 -1 36t1 35q3 52 16.5 95t40 74.5t66 48.5t90.5 17q58 0 97.5 -21t62.5 -53v40q0 10 7 17t17 7h80q10 0 17 -7t7 -17v-662q0 -10 -7 -17t-17 -7h-86z
M297 97q40 0 65 18t37.5 45.5t13.5 57.5q2 19 2 39t-2 38q-1 31 -13 60.5t-37 48.5t-66 19q-42 0 -67 -18.5t-35.5 -48.5t-12.5 -66q-2 -30 0 -60q2 -36 12.5 -66t35.5 -48.5t67 -18.5z" />
    <glyph glyph-name="r" unicode="r" horiz-adv-x="417" 
d="M90 0q-10 0 -17 7t-7 17v471q0 11 7 18t17 7h81q10 0 17.5 -7t7.5 -18v-41q23 32 59.5 49t84.5 17h41q11 0 17.5 -7t6.5 -17v-72q0 -10 -6.5 -17t-17.5 -7h-78q-48 0 -74.5 -26.5t-26.5 -74.5v-275q0 -10 -7 -17t-18 -7h-87z" />
    <glyph glyph-name="s" unicode="s" horiz-adv-x="532" 
d="M263 -10q-60 0 -102.5 14t-69.5 35t-40 42t-14 35q-1 11 6.5 17.5t16.5 6.5h79q4 0 7 -1t8 -6q13 -11 27.5 -23t34.5 -20.5t50 -8.5q39 0 65.5 15.5t26.5 44.5q0 21 -11.5 34t-42.5 23.5t-88 22.5q-56 13 -93 33t-55 50t-18 70q0 39 23.5 74.5t70 58.5t115.5 23
q54 0 94 -13.5t66.5 -33.5t40.5 -40.5t15 -35.5q1 -11 -6 -17.5t-16 -6.5h-74q-5 0 -9 2t-8 5q-11 10 -24 21.5t-31.5 19.5t-48.5 8q-38 0 -58 -16.5t-20 -41.5q0 -17 9.5 -29.5t38.5 -23.5t88 -23q67 -12 106.5 -35.5t56 -54t16.5 -67.5q0 -45 -26.5 -81t-78 -56.5
t-127.5 -20.5z" />
    <glyph glyph-name="t" unicode="t" horiz-adv-x="429" 
d="M301 0q-60 0 -101 21t-61 62.5t-20 103.5v227h-79q-10 0 -17 7t-7 18v57q0 10 7 17t17 7h79v166q0 10 6.5 17t17.5 7h81q10 0 17 -7t7 -17v-166h125q10 0 17 -7t7 -17v-57q0 -11 -7 -18t-17 -7h-125v-217q0 -41 14.5 -64t50.5 -23h69q10 0 17 -7t7 -17v-62q0 -10 -7 -17
t-17 -7h-81z" />
    <glyph glyph-name="u" unicode="u" horiz-adv-x="621" 
d="M259 -10q-61 0 -105.5 27.5t-68.5 78t-24 119.5v281q0 10 7 17t17 7h88q11 0 17.5 -7t6.5 -17v-275q0 -124 109 -124q52 0 82.5 33t30.5 91v275q0 10 7 17t17 7h88q10 0 17 -7t7 -17v-472q0 -10 -7 -17t-17 -7h-81q-11 0 -17.5 7t-6.5 17v41q-27 -35 -67 -55t-100 -20z
" />
    <glyph glyph-name="v" unicode="v" horiz-adv-x="574" 
d="M250 0q-16 0 -23.5 7.5t-12.5 17.5l-187 464q-2 5 -2 9q0 9 6.5 15.5t15.5 6.5h81q12 0 18 -6.5t8 -12.5l133 -351l133 351q2 6 8 12.5t18 6.5h82q8 0 14.5 -6.5t6.5 -15.5q0 -4 -1 -9l-188 -464q-4 -10 -12 -17.5t-24 -7.5h-74z" />
    <glyph glyph-name="w" unicode="w" horiz-adv-x="820" 
d="M208 0q-14 0 -21 7t-12 18l-143 464q-1 5 -1 9q0 9 6.5 15.5t14.5 6.5h74q12 0 19 -6.5t8 -12.5l98 -331l104 328q2 7 9 14.5t21 7.5h50q14 0 21 -7.5t9 -14.5l104 -328l98 331q1 6 7.5 12.5t18.5 6.5h74q9 0 15.5 -6.5t6.5 -15.5q0 -4 -2 -9l-143 -464q-3 -11 -10.5 -18
t-21.5 -7h-65q-13 0 -21.5 7t-11.5 18l-104 316l-104 -316q-4 -11 -11.5 -18t-22.5 -7h-64z" />
    <glyph glyph-name="x" unicode="x" horiz-adv-x="564" 
d="M44 0q-9 0 -15.5 6.5t-6.5 15.5q0 3 1.5 7t5.5 10l170 228l-158 214q-3 5 -4.5 9t-1.5 8q0 9 6.5 15.5t15.5 6.5h87q12 0 18 -6t9 -11l113 -150l113 150q4 5 9.5 11t17.5 6h83q9 0 15.5 -6.5t6.5 -14.5q0 -5 -1.5 -9t-4.5 -9l-160 -216l171 -226q4 -6 5.5 -10t1.5 -7
q0 -9 -6.5 -15.5t-15.5 -6.5h-91q-11 0 -17 5.5t-10 10.5l-120 159l-122 -159q-4 -5 -9.5 -10.5t-17.5 -5.5h-88z" />
    <glyph glyph-name="y" unicode="y" horiz-adv-x="574" 
d="M160 -190q-8 0 -14 6t-6 14q0 4 0.5 7.5t3.5 8.5l78 185l-192 453q-4 10 -4 14q1 9 7 15.5t15 6.5h81q12 0 18 -6t9 -13l133 -327l137 327q3 8 9 13.5t18 5.5h80q8 0 14.5 -6t6.5 -14q0 -6 -4 -16l-283 -655q-4 -8 -10 -13.5t-18 -5.5h-79z" />
    <glyph glyph-name="z" unicode="z" horiz-adv-x="531" 
d="M64 0q-11 0 -17.5 7t-6.5 17v57q0 9 4.5 17.5t9.5 14.5l256 303h-238q-10 0 -17 6.5t-7 17.5v56q0 10 7 17t17 7h379q11 0 17.5 -7t6.5 -17v-61q0 -9 -4 -16t-10 -14l-250 -301h261q10 0 17 -6.5t7 -17.5v-56q0 -10 -7 -17t-17 -7h-408z" />
    <glyph glyph-name="braceleft" unicode="{" horiz-adv-x="397" 
d="M344 -159q-58 1 -102 19.5t-73 55t-43.5 90.5t-14.5 125q0 47 -13.5 75.5t-42.5 44.5l-9 5q-26 15 -26 39v28q0 24 26 39l10 5q28 17 41.5 45.5t13.5 74.5q0 71 14.5 125t43.5 90t72.5 55t102.5 19h5q10 0 16 -6t6 -16v-64q0 -10 -6 -16t-14 -6h-5q-44 -2 -69 -22.5
t-35 -63t-10 -112.5q0 -61 -19.5 -102t-54.5 -59q23 -11 39.5 -34.5t25.5 -55.5t9 -71q0 -69 10 -112t34.5 -63.5t69.5 -22.5l5 -1q8 0 14 -6t6 -16v-64q0 -9 -6 -15.5t-16 -6.5h-5z" />
    <glyph glyph-name="bar" unicode="|" horiz-adv-x="249" 
d="M92 -208q-10 0 -17 7t-7 17v1056q0 10 7 17t17 7h65q10 0 17 -7t7 -17v-1056q0 -10 -7 -17t-17 -7h-65z" />
    <glyph glyph-name="braceright" unicode="}" horiz-adv-x="397" 
d="M52 776q59 0 103 -18.5t73 -55t43.5 -90.5t14.5 -126q0 -46 13.5 -74.5t41.5 -45.5l10 -4q26 -15 26 -39v-29q0 -24 -26 -39l-10 -5q-29 -16 -42 -44.5t-13 -75.5q0 -71 -14.5 -124.5t-43.5 -90t-72.5 -55t-102.5 -19.5h-6q-9 0 -15.5 6.5t-6.5 15.5v64q0 10 6 16t15 6h4
q46 3 70.5 23t34.5 63t10 112q0 62 19.5 103t54.5 58q-23 13 -39.5 35.5t-25.5 54.5t-9 71q0 70 -10 113t-34.5 63.5t-69.5 22.5h-5q-9 0 -15 6t-6 16v64q0 10 6.5 16t15.5 6h5z" />
    <glyph glyph-name="asciitilde" unicode="~" horiz-adv-x="557" 
d="M85 227q-10 0 -14.5 6.5t-4.5 18.5v58q0 17 15 31.5t40 24t55 9.5q34 0 59.5 -6t48 -13t46 -13t53.5 -6q28 0 46 11t28 18q4 3 8 4.5t8 1.5q11 0 15 -6t4 -19v-57q0 -17 -15 -32t-39.5 -24.5t-55.5 -9.5q-33 0 -58 6t-47 13t-46.5 13t-55.5 6q-28 0 -46 -11t-28 -18
q-4 -2 -7.5 -3.5t-8.5 -2.5z" />
    <glyph glyph-name="uni00A0" unicode="&#xa0;" horiz-adv-x="229" 
 />
    <glyph glyph-name="exclamdown" unicode="&#xa1;" horiz-adv-x="260" 
d="M171 324q10 0 17 -6.5t7 -17.5v-458q0 -10 -7 -17t-17 -7h-81q-10 0 -17 7t-7 17v458q0 11 7 17.5t17 6.5h81zM178 518q10 0 17 -6.5t7 -17.5v-93q0 -10 -7 -17.5t-17 -7.5h-94q-10 0 -17 7.5t-7 17.5v93q0 11 7 17.5t17 6.5h94z" />
    <glyph glyph-name="cent" unicode="&#xa2;" horiz-adv-x="578" 
d="M253 -100q-10 0 -17 7t-7 17v72q-81 15 -129.5 72.5t-51.5 151.5q-1 15 -1 39.5t1 40.5q3 93 51.5 151t129.5 72v63q0 10 7 17t17 7h70q10 0 17 -7t7 -17v-61q51 -9 86.5 -29.5t58 -46t32.5 -50.5t11 -42q1 -11 -6.5 -17.5t-17.5 -6.5h-88q-10 0 -15.5 5t-10.5 15
q-15 40 -42 56.5t-65 16.5q-45 0 -74.5 -31.5t-31.5 -99.5q-2 -38 0 -70q2 -69 31.5 -100t74.5 -31q39 0 65.5 16.5t41.5 56.5q5 10 10.5 15t15.5 5h88q10 0 17.5 -6.5t6.5 -17.5q-1 -16 -11 -41t-31.5 -51t-57.5 -46.5t-88 -29.5v-71q0 -10 -7 -17t-17 -7h-70z" />
    <glyph glyph-name="sterling" unicode="&#xa3;" horiz-adv-x="699" 
d="M479 -7q-35 0 -63 9t-51.5 22t-45 26t-42.5 22t-44 9q-36 0 -51 -17.5t-22 -47.5q-2 -4 -5.5 -10t-13.5 -6h-76q-8 0 -13.5 6t-5.5 13q2 66 33.5 107.5t79.5 57.5q0 25 -4 50.5t-8 54.5h-77q-10 0 -17 6.5t-7 17.5v55q0 10 7 17t17 7h56q-1 14 -1.5 29t-0.5 31
q0 78 28.5 136t86 90.5t142.5 32.5q81 0 140 -29.5t91 -81t33 -117.5q0 -9 -6 -15.5t-15 -6.5h-94q-11 0 -18.5 6t-11.5 18q-12 54 -40.5 82.5t-79.5 28.5q-57 0 -85 -39.5t-28 -105.5q0 -16 0.5 -30.5t2.5 -28.5h171q10 0 17 -7t7 -17v-55q0 -11 -7 -17.5t-17 -6.5h-164
q3 -27 6.5 -53t2.5 -55q30 -6 52 -17.5t40.5 -25t38.5 -22.5t45 -9q38 0 55.5 20t26.5 50q1 5 6 10t12 5h68q9 0 14 -5.5t5 -13.5q-1 -58 -25 -98.5t-62 -61t-83 -20.5z" />
    <glyph glyph-name="currency" unicode="&#xa4;" horiz-adv-x="601" 
d="M103 65l-38 37q-7 8 -7 17.5t7 16.5l45 44q-36 52 -36 120q0 67 36 120l-45 44q-7 7 -7 16.5t7 17.5l38 37q7 8 16.5 8t16.5 -8l44 -44q26 17 56.5 26t63.5 9t64 -9t56 -26l44 44q8 8 17.5 8t16.5 -8l38 -37q7 -8 7 -17.5t-7 -16.5l-45 -44q17 -26 26.5 -56.5t9.5 -63.5
q0 -34 -9.5 -64t-26.5 -56l45 -44q7 -7 7 -16.5t-7 -17.5l-38 -37q-7 -7 -16.5 -7t-17.5 7l-44 44q-53 -35 -120 -35t-120 35l-44 -44q-7 -7 -16.5 -7t-16.5 7zM300 174q35 0 64 17t45.5 46t16.5 63q0 35 -16.5 63.5t-45.5 45.5t-64 17t-63.5 -17t-45 -45.5t-16.5 -63.5
q0 -34 16.5 -63t45 -46t63.5 -17z" />
    <glyph glyph-name="yen" unicode="&#xa5;" horiz-adv-x="653" 
d="M281 0q-11 0 -17.5 7t-6.5 17v240l-223 404q-1 2 -2 5t-1 6q0 9 6 15t15 6h89q12 0 20 -6t11 -13l154 -274l155 274q4 7 11 13t20 6h89q9 0 15 -6t6 -15q0 -3 -1 -6t-2 -5l-223 -404v-240q0 -10 -7 -17t-18 -7h-90zM121 86q-10 0 -17 7t-7 17v57q0 11 7 17.5t17 6.5h411
q10 0 17 -6.5t7 -17.5v-57q0 -10 -7 -17t-17 -7h-411zM121 227q-10 0 -17 6.5t-7 17.5v56q0 11 7 17.5t17 6.5h411q10 0 17 -6.5t7 -17.5v-56q0 -11 -7 -17.5t-17 -6.5h-411z" />
    <glyph glyph-name="brokenbar" unicode="&#xa6;" horiz-adv-x="254" 
d="M95 475q-11 0 -17.5 7t-6.5 17v306q0 10 6.5 17t17.5 7h64q11 0 17.5 -7t6.5 -17v-306q0 -10 -6.5 -17t-17.5 -7h-64zM95 0q-11 0 -17.5 7t-6.5 17v306q0 10 6.5 17t17.5 7h64q11 0 17.5 -7t6.5 -17v-306q0 -10 -6.5 -17t-17.5 -7h-64z" />
    <glyph glyph-name="section" unicode="&#xa7;" horiz-adv-x="587" 
d="M286 -140q-55 0 -96 13.5t-68.5 36t-41.5 47.5t-15 46q-1 10 5 16t16 6h78q9 0 15 -4t11 -14q6 -12 15 -24t28.5 -19.5t51.5 -7.5q42 0 62 21.5t20 51.5q0 22 -9.5 36.5t-36 26.5t-80.5 25q-74 21 -118.5 47.5t-64.5 63t-20 88.5q0 42 20.5 75t53.5 58q-12 17 -17 37.5
t-5 44.5q0 46 23.5 87t70.5 66.5t117 25.5q74 0 122.5 -23.5t73 -56.5t25.5 -63q1 -9 -5.5 -15t-15.5 -6h-78q-10 0 -15.5 4.5t-11.5 13.5q-5 12 -15 23.5t-28.5 19t-50.5 7.5q-42 0 -62 -21t-20 -51q0 -23 9.5 -37.5t36.5 -26t80 -25.5q74 -21 118.5 -47.5t64.5 -63
t20 -88.5q0 -42 -21 -75t-53 -58q12 -17 17 -37.5t5 -44.5q0 -46 -23.5 -87t-70.5 -66.5t-117 -25.5zM379 186q24 11 36.5 26t12.5 38q0 22 -9.5 39t-35.5 31.5t-77 29.5q-32 10 -55 18t-43 16q-25 -10 -37 -26t-12 -38q0 -21 9.5 -38t36 -32t77.5 -30q50 -16 97 -34z" />
    <glyph glyph-name="dieresis" unicode="&#xa8;" horiz-adv-x="430" 
d="M272 614q-10 0 -16 6t-6 16v73q0 10 6 16.5t16 6.5h73q10 0 16.5 -6.5t6.5 -16.5v-73q0 -10 -6.5 -16t-16.5 -6h-73zM84 614q-10 0 -16 6t-6 16v73q0 10 6 16.5t16 6.5h73q10 0 16.5 -6.5t6.5 -16.5v-73q0 -10 -6.5 -16t-16.5 -6h-73z" />
    <glyph glyph-name="copyright" unicode="&#xa9;" horiz-adv-x="817" 
d="M408 -10q-75 0 -140 28t-114.5 77.5t-77.5 114.5t-28 140t28 140t77.5 114.5t114.5 77.5t140 28t140 -28t114.5 -77.5t77.5 -114.5t28 -140t-28 -140t-77.5 -114.5t-114.5 -77.5t-140 -28zM408 61q60 0 111 23t90 62.5t61 92t22 111.5t-22 111.5t-61 92t-90 62.5t-111 23
q-59 0 -110.5 -23t-90 -62.5t-60.5 -92t-22 -111.5t22 -111.5t60.5 -92t90 -62.5t110.5 -23zM408 158q-51 0 -88 21t-56.5 56t-22.5 80q0 8 -0.5 22t0 28t0.5 22q3 45 22.5 80t56.5 56t88 21q58 0 95 -18.5t55 -45t18 -52.5q1 -10 -5.5 -16t-16.5 -6h-49q-10 0 -15.5 6.5
t-8.5 13.5q-8 20 -24.5 30.5t-48.5 10.5q-29 0 -45 -13t-22.5 -32t-7.5 -37q0 -8 -0.5 -21t0 -26t0.5 -21q1 -18 7.5 -37t22.5 -32t45 -13q32 0 48.5 10.5t24.5 30.5q3 7 8.5 13.5t15.5 6.5h49q10 0 16.5 -6t5.5 -16q0 -25 -18 -52t-55 -45.5t-95 -18.5z" />
    <glyph glyph-name="ordfeminine" unicode="&#xaa;" horiz-adv-x="361" 
d="M139 429q-43 0 -69.5 23t-26.5 55q0 39 30.5 62.5t82.5 30.5l60 9q0 6 -2 13.5t-9.5 13t-24.5 5.5t-25 -4.5t-14.5 -9t-16.5 -4.5h-46q-7 0 -12.5 3.5t-4.5 11.5q1 11 15 27t41 28t65 12q58 0 89 -29t31 -80v-143q0 -8 -5 -13.5t-14 -5.5h-46q-8 0 -13.5 5.5t-5.5 13.5
v10q-9 -15 -31 -24.5t-48 -9.5zM159 492q30 0 43.5 17.5t13.5 43.5l-40 -7q-30 -5 -39.5 -14.5t-9.5 -20.5q0 -8 9.5 -13.5t22.5 -5.5z" />
    <glyph glyph-name="guillemotleft" unicode="&#xab;" horiz-adv-x="615" 
d="M538 76q-4 0 -9.5 2t-10.5 7l-200 194q-8 8 -11.5 15.5t-4.5 16.5v36q1 9 4.5 16.5t11.5 15.5l200 194q5 5 10.5 7t9.5 2q9 0 14.5 -6t5.5 -15v-67q0 -14 -4 -22t-14 -18l-128 -125l128 -125q10 -10 14 -18t4 -22v-67q0 -9 -5.5 -15t-14.5 -6zM272 76q-4 0 -9 2t-11 7
l-200 194q-8 8 -11.5 15.5t-4.5 16.5v36q1 9 4.5 16.5t11.5 15.5l200 194q6 5 11 7t9 2q9 0 15 -6t6 -15v-67q0 -14 -4 -22t-14 -18l-129 -125l129 -125q10 -10 14 -18t4 -22v-67q0 -9 -6 -15t-15 -6z" />
    <glyph glyph-name="logicalnot" unicode="&#xac;" horiz-adv-x="574" 
d="M426 147q-11 0 -17.5 6.5t-6.5 17.5v100h-316q-10 0 -17 7t-7 17v55q0 11 7 17.5t17 6.5h397q11 0 17.5 -6.5t6.5 -17.5v-179q0 -11 -6.5 -17.5t-17.5 -6.5h-57z" />
    <glyph glyph-name="uni00AD" unicode="&#xad;" horiz-adv-x="600" 
d="M87 243q-11 0 -17.5 7t-6.5 17v66q0 10 6.5 17t17.5 7h307q10 0 17 -7t7 -17v-66q0 -10 -7 -17t-17 -7h-307z" />
    <glyph glyph-name="registered" unicode="&#xae;" horiz-adv-x="817" 
d="M408 -10q-75 0 -140 28t-114.5 77.5t-77.5 114.5t-28 140t28 140t77.5 114.5t114.5 77.5t140 28t140 -28t114.5 -77.5t77.5 -114.5t28 -140t-28 -140t-77.5 -114.5t-114.5 -77.5t-140 -28zM408 61q60 0 111 23t90 62.5t61 92t22 111.5t-22 111.5t-61 92t-90 62.5t-111 23
q-59 0 -110.5 -23t-90 -62.5t-60.5 -92t-22 -111.5t22 -111.5t60.5 -92t90 -62.5t110.5 -23zM288 168q-22 0 -22 22v322q0 22 22 22h135q38 0 71.5 -11.5t54 -37.5t20.5 -71q0 -40 -18.5 -65.5t-46.5 -37.5l59 -107q2 -2 3 -5.5t1 -8.5q0 -8 -5.5 -15t-16.5 -7h-43
q-10 0 -17 5t-12 14l-56 107h-61v-104q0 -22 -22 -22h-46zM356 369h66q32 0 44 13.5t12 31.5q0 19 -12 32.5t-44 13.5h-66v-91z" />
    <glyph glyph-name="macron" unicode="&#xaf;" horiz-adv-x="420" 
d="M84 611q-10 0 -16 6t-6 16v51q0 10 6 16t16 6h251q10 0 16.5 -6t6.5 -16v-51q0 -10 -6.5 -16t-16.5 -6h-251z" />
    <glyph glyph-name="degree" unicode="&#xb0;" horiz-adv-x="399" 
d="M200 399q-44 0 -80.5 20.5t-58.5 56t-22 79.5t22 79t58.5 55.5t80.5 20.5t80 -20t58 -55.5t22 -79.5t-22 -79.5t-58 -56t-80 -20.5zM200 479q34 0 55 21t21 55t-21 55t-55 21t-55 -21t-21 -55t21 -55t55 -21z" />
    <glyph glyph-name="plusminus" unicode="&#xb1;" horiz-adv-x="564" 
d="M253 190q-10 0 -17 7t-7 17v151h-148q-11 0 -17.5 7t-6.5 17v53q0 10 6.5 17t17.5 7h148v147q0 10 7 17t17 7h59q10 0 17 -7t7 -17v-147h147q11 0 17.5 -7t6.5 -17v-53q0 -10 -6.5 -17t-17.5 -7h-147v-151q0 -10 -7 -17t-17 -7h-59zM91 0q-11 0 -17.5 7t-6.5 17v53
q0 10 6.5 17t17.5 7h382q11 0 17.5 -7t6.5 -17v-53q0 -10 -6.5 -17t-17.5 -7h-382z" />
    <glyph glyph-name="uni00B2" unicode="&#xb2;" horiz-adv-x="349" 
d="M50 350q-22 0 -22 22v28q0 8 5 15.5t19 17.5q59 44 95.5 70t53.5 46t17 42q0 18 -12.5 29.5t-33.5 11.5q-19 0 -29 -6t-14.5 -14t-6.5 -13q-6 -11 -11 -14.5t-13 -3.5h-44q-19 0 -18 19q2 29 20.5 52.5t49 38t66.5 14.5q62 0 98 -32t36 -79q0 -34 -15.5 -59.5t-46.5 -51
t-78 -58.5h132q22 0 22 -22v-31q0 -22 -22 -22h-248z" />
    <glyph glyph-name="uni00B3" unicode="&#xb3;" horiz-adv-x="348" 
d="M169 345q-51 0 -82 14t-45.5 34t-16.5 39q-1 10 6 14.5t11 4.5h32q8 0 15.5 -2.5t13.5 -5.5q8 -5 13.5 -10.5t16.5 -9.5t33 -4q27 0 43 10t16 28q0 22 -15 29.5t-40 7.5h-44q-9 0 -15 6t-6 15v22q0 7 3 12t8 10l69 64h-122q-22 0 -22 22v33q0 22 22 22h214q22 0 22 -22
v-29q0 -10 -2.5 -17t-11.5 -16l-68 -57q49 -5 74 -32t25 -72q0 -50 -39.5 -80t-107.5 -30z" />
    <glyph glyph-name="acute" unicode="&#xb4;" horiz-adv-x="367" 
d="M78 595q-16 0 -16 16q0 8 5 13l81 99q10 11 17 14.5t20 3.5h100q19 0 19 -19q0 -7 -5 -12l-124 -102q-8 -7 -15.5 -10t-20.5 -3h-61z" />
    <glyph glyph-name="uni00B5" unicode="&#xb5;" horiz-adv-x="632" 
d="M91 -200q-11 0 -17.5 7t-6.5 17v672q0 10 6.5 17t17.5 7h89q11 0 17.5 -7t6.5 -17v-275q0 -39 16.5 -66.5t42.5 -42.5t54 -15q29 0 55 15t42 42.5t16 66.5v275q0 10 7 17t17 7h88q10 0 17 -7t7 -17v-472q0 -10 -7 -17t-17 -7h-82q-10 0 -17 7t-7 17v41
q-18 -26 -44.5 -43.5t-68.5 -20.5q-40 -2 -68 9.5t-51 30.5v-217q0 -10 -6.5 -17t-17.5 -7h-89z" />
    <glyph glyph-name="paragraph" unicode="&#xb6;" horiz-adv-x="580" 
d="M238 -100q-11 0 -18 7t-7 17v406q-51 0 -93 25t-67 67t-25 93t25 93t67 67t93 25h270q10 0 17 -7t7 -17v-752q0 -10 -7 -17t-17 -7h-59q-11 0 -17.5 7t-6.5 17v681h-79v-681q0 -10 -7 -17t-17 -7h-59z" />
    <glyph glyph-name="periodcentered" unicode="&#xb7;" horiz-adv-x="330" 
d="M165 192q-31 0 -58 15.5t-42.5 42.5t-15.5 58q0 33 15.5 59t42.5 41.5t58 15.5q32 0 58.5 -15.5t42 -41.5t15.5 -59q0 -31 -15.5 -58t-41.5 -42.5t-59 -15.5z" />
    <glyph glyph-name="cedilla" unicode="&#xb8;" horiz-adv-x="305" 
d="M147 -220q-28 1 -49.5 10t-31 21t0.5 20l17 15q9 8 15.5 4.5t17 -10t30.5 -6.5q15 0 26 9.5t11 24.5q0 14 -10.5 23t-26.5 9q-13 0 -23.5 -3.5t-18.5 -5t-16 6.5l-18 18q-6 7 -4 14.5t6 16.5l35 80h62l-40 -80q6 3 16.5 5t18.5 2q35 0 56.5 -24t21.5 -61q0 -38 -25 -64
t-71 -25z" />
    <glyph glyph-name="uni00B9" unicode="&#xb9;" horiz-adv-x="276" 
d="M146 350q-22 0 -22 22v223l-55 -42q-7 -5 -16 -4t-15 9l-20 27q-6 8 -4.5 16.5t8.5 14.5l103 77q10 7 23 7h44q22 0 22 -22v-306q0 -22 -22 -22h-46z" />
    <glyph glyph-name="ordmasculine" unicode="&#xba;" horiz-adv-x="357" 
d="M179 429q-61 0 -95 28.5t-37 82.5q-1 8 -1 27.5t1 26.5q3 55 39 83t93 28q56 0 92 -28t39 -83q1 -7 1 -26.5t-1 -27.5q-3 -54 -36.5 -82.5t-94.5 -28.5zM179 497q21 0 32 11.5t12 36.5q1 8 1 22.5t-1 21.5q-1 23 -12 35.5t-32 12.5q-22 0 -32.5 -12.5t-12.5 -35.5
q-1 -7 -1 -21.5t1 -22.5q2 -25 12.5 -36.5t32.5 -11.5z" />
    <glyph glyph-name="guillemotright" unicode="&#xbb;" horiz-adv-x="615" 
d="M343 76q-9 0 -15 6t-6 15v67q0 14 4 22t14 18l128 125l-128 125q-10 10 -14 18t-4 22v67q0 9 6 15t15 6q4 0 9.5 -2t10.5 -7l200 -194q8 -8 11.5 -15.5t3.5 -16.5v-36q0 -9 -3.5 -16.5t-11.5 -15.5l-200 -194q-5 -5 -10.5 -7t-9.5 -2zM77 76q-9 0 -15 6t-6 15v67
q0 14 4 22t14 18l129 125l-129 125q-10 10 -14 18t-4 22v67q0 9 6 15t15 6q4 0 9.5 -2t10.5 -7l200 -194q8 -8 11.5 -15.5t4.5 -16.5v-36q-1 -9 -4.5 -16.5t-11.5 -15.5l-200 -194q-5 -5 -10.5 -7t-9.5 -2z" />
    <glyph glyph-name="onequarter" unicode="&#xbc;" horiz-adv-x="811" 
d="M146 350q-22 0 -22 22v223l-55 -42q-7 -5 -16 -4t-15 9l-20 27q-6 8 -4.5 16.5t8.5 14.5l103 77q10 7 23 7h44q22 0 22 -22v-306q0 -22 -22 -22h-46zM97 0q-21 0 -21 20q0 6 4 11l493 650q7 9 14 14t20 5h41q21 0 21 -20q0 -6 -4 -11l-493 -650q-7 -9 -13.5 -14t-20.5 -5
h-41zM666 0q-22 0 -22 22v41h-148q-22 0 -22 22v36q0 2 1.5 10t10.5 20l133 181q8 11 15.5 14.5t14.5 3.5h61q22 0 22 -22v-186h35q22 0 22 -22v-35q0 -22 -22 -22h-35v-41q0 -22 -22 -22h-44zM569 140h77v109z" />
    <glyph glyph-name="onehalf" unicode="&#xbd;" horiz-adv-x="801" 
d="M146 350q-22 0 -22 22v223l-55 -42q-7 -5 -16 -4t-15 9l-20 27q-6 8 -4.5 16.5t8.5 14.5l103 77q10 7 23 7h44q22 0 22 -22v-306q0 -22 -22 -22h-46zM97 0q-21 0 -21 20q0 6 4 11l493 650q7 9 14 14t20 5h41q21 0 21 -20q0 -6 -4 -11l-493 -650q-7 -9 -13.5 -14t-20.5 -5
h-41zM503 0q-22 0 -22 22v28q0 8 5 15.5t19 17.5q59 44 95.5 70t53.5 46t17 42q0 18 -12.5 29.5t-33.5 11.5q-19 0 -29 -6t-14.5 -14t-6.5 -13q-6 -11 -11 -14.5t-13 -3.5h-44q-19 0 -18 19q2 29 20.5 52.5t49 38t66.5 14.5q62 0 98 -32t36 -79q0 -34 -15.5 -59.5t-46.5 -51
t-78 -58.5h132q22 0 22 -22v-31q0 -22 -22 -22h-248z" />
    <glyph glyph-name="threequarters" unicode="&#xbe;" horiz-adv-x="883" 
d="M169 345q-51 0 -82 14t-45.5 34t-16.5 39q-1 10 6 14.5t11 4.5h32q8 0 15.5 -2.5t13.5 -5.5q8 -5 13.5 -10.5t16.5 -9.5t33 -4q27 0 43 10t16 28q0 22 -15 29.5t-40 7.5h-44q-9 0 -15 6t-6 15v22q0 7 3 12t8 10l69 64h-122q-22 0 -22 22v33q0 22 22 22h214q22 0 22 -22
v-29q0 -10 -2.5 -17t-11.5 -16l-68 -57q49 -5 74 -32t25 -72q0 -50 -39.5 -80t-107.5 -30zM169 0q-21 0 -21 20q0 6 4 11l493 650q7 9 14 14t20 5h41q21 0 21 -20q0 -6 -4 -11l-493 -650q-7 -9 -13.5 -14t-20.5 -5h-41zM738 0q-22 0 -22 22v41h-148q-22 0 -22 22v36
q0 2 1.5 10t10.5 20l133 181q8 11 15.5 14.5t14.5 3.5h61q22 0 22 -22v-186h35q22 0 22 -22v-35q0 -22 -22 -22h-35v-41q0 -22 -22 -22h-44zM641 140h77v109z" />
    <glyph glyph-name="questiondown" unicode="&#xbf;" horiz-adv-x="558" 
d="M322 332q10 0 15.5 -6t5.5 -15v-16v-16q-4 -38 -21.5 -69t-41 -56.5t-47 -48t-40 -45t-19.5 -47.5q-3 -28 11.5 -48.5t39 -31t51.5 -10.5q47 0 77 23.5t41 73.5q3 13 10.5 18.5t18.5 5.5h85q10 0 16 -7t6 -18q-1 -40 -18.5 -77.5t-51 -67.5t-81.5 -47.5t-110 -17.5
q-68 0 -114.5 17.5t-74 45.5t-39.5 61t-11 63q2 38 17 68.5t37 56t45 49.5t40.5 49t23.5 53q2 9 3 17.5t2 17.5q4 12 10 18.5t17 6.5h97zM326 519q10 0 17 -6.5t7 -17.5v-87q0 -10 -7 -17.5t-17 -7.5h-97q-11 0 -18 7.5t-7 17.5v87q0 11 7 17.5t18 6.5h97z" />
    <glyph glyph-name="Agrave" unicode="&#xc0;" horiz-adv-x="693" 
d="M35 0q-8 0 -14.5 6t-6.5 15q0 4 2 9l241 645q3 10 11.5 17.5t23.5 7.5h109q15 0 23 -7.5t12 -17.5l241 -645q1 -5 1 -9q0 -9 -6 -15t-14 -6h-87q-14 0 -20.5 6.5t-8.5 12.5l-47 122h-297l-47 -122q-2 -6 -8.5 -12.5t-20.5 -6.5h-87zM233 256h227l-114 309zM328 750
q-13 0 -20.5 3t-15.5 10l-124 102q-5 5 -5 12q0 19 19 19h107q13 0 20.5 -3.5t16.5 -14.5l82 -99q5 -5 5 -13q0 -16 -16 -16h-69z" />
    <glyph glyph-name="Aacute" unicode="&#xc1;" horiz-adv-x="693" 
d="M35 0q-8 0 -14.5 6t-6.5 15q0 4 2 9l241 645q3 10 11.5 17.5t23.5 7.5h109q15 0 23 -7.5t12 -17.5l241 -645q1 -5 1 -9q0 -9 -6 -15t-14 -6h-87q-14 0 -20.5 6.5t-8.5 12.5l-47 122h-297l-47 -122q-2 -6 -8.5 -12.5t-20.5 -6.5h-87zM233 256h227l-114 309zM302 750
q-16 0 -16 16q0 8 5 13l81 99q10 11 17 14.5t20 3.5h107q19 0 19 -19q0 -7 -5 -12l-124 -102q-8 -7 -15.5 -10t-19.5 -3h-69z" />
    <glyph glyph-name="Acircumflex" unicode="&#xc2;" horiz-adv-x="693" 
d="M35 0q-8 0 -14.5 6t-6.5 15q0 4 2 9l241 645q3 10 11.5 17.5t23.5 7.5h109q15 0 23 -7.5t12 -17.5l241 -645q1 -5 1 -9q0 -9 -6 -15t-14 -6h-87q-14 0 -20.5 6.5t-8.5 12.5l-47 122h-297l-47 -122q-2 -6 -8.5 -12.5t-20.5 -6.5h-87zM233 256h227l-114 309zM192 750
q-15 0 -15 13q0 8 9 17l98 100q10 11 17.5 13.5t16.5 2.5h58q10 0 17 -2.5t17 -13.5l98 -100q9 -9 9 -17q0 -13 -15 -13h-39q-8 0 -16 1.5t-15 5.5l-85 53l-85 -53q-6 -4 -14.5 -5.5t-16.5 -1.5h-39z" />
    <glyph glyph-name="Atilde" unicode="&#xc3;" horiz-adv-x="693" 
d="M35 0q-8 0 -14.5 6t-6.5 15q0 4 2 9l241 645q3 10 11.5 17.5t23.5 7.5h109q15 0 23 -7.5t12 -17.5l241 -645q1 -5 1 -9q0 -9 -6 -15t-14 -6h-87q-14 0 -20.5 6.5t-8.5 12.5l-47 122h-297l-47 -122q-2 -6 -8.5 -12.5t-20.5 -6.5h-87zM233 256h227l-114 309zM403 745
q-26 0 -43.5 8.5t-31.5 17.5t-30 9q-13 0 -18.5 -7.5t-10.5 -15t-16 -7.5h-46q-7 0 -12 5t-5 12q0 15 5.5 34t18 36.5t31.5 28.5t44 11q27 0 44.5 -8.5t31.5 -17.5t30 -9q13 0 18.5 8t10.5 15.5t16 7.5h46q8 0 12.5 -5.5t4.5 -12.5q0 -15 -6 -34t-18.5 -36t-31 -28.5
t-44.5 -11.5z" />
    <glyph glyph-name="Adieresis" unicode="&#xc4;" horiz-adv-x="693" 
d="M35 0q-8 0 -14.5 6t-6.5 15q0 4 2 9l241 645q3 10 11.5 17.5t23.5 7.5h109q15 0 23 -7.5t12 -17.5l241 -645q1 -5 1 -9q0 -9 -6 -15t-14 -6h-87q-14 0 -20.5 6.5t-8.5 12.5l-47 122h-297l-47 -122q-2 -6 -8.5 -12.5t-20.5 -6.5h-87zM233 256h227l-114 309zM418 750
q-10 0 -16 6t-6 16v73q0 10 6 16.5t16 6.5h73q10 0 16.5 -6.5t6.5 -16.5v-73q0 -10 -6.5 -16t-16.5 -6h-73zM200 750q-10 0 -16 6t-6 16v73q0 10 6 16.5t16 6.5h73q10 0 16.5 -6.5t6.5 -16.5v-73q0 -10 -6.5 -16t-16.5 -6h-73z" />
    <glyph glyph-name="Aring" unicode="&#xc5;" horiz-adv-x="693" 
d="M35 0q-8 0 -14.5 6t-6.5 15q0 4 2 9l241 645q3 10 11.5 17.5t23.5 7.5h109q15 0 23 -7.5t12 -17.5l241 -645q1 -5 1 -9q0 -9 -6 -15t-14 -6h-87q-14 0 -20.5 6.5t-8.5 12.5l-47 122h-297l-47 -122q-2 -6 -8.5 -12.5t-20.5 -6.5h-87zM233 256h227l-114 309zM347 740
q-36 0 -62 23.5t-26 59.5t26 59.5t62 23.5t62 -23.5t26 -59.5t-26 -59.5t-62 -23.5zM347 793q13 0 21.5 8.5t8.5 21.5t-8.5 21.5t-21.5 8.5t-21.5 -8.5t-8.5 -21.5t8.5 -21.5t21.5 -8.5z" />
    <glyph glyph-name="AE" unicode="&#xc6;" horiz-adv-x="955" 
d="M25 0q-8 0 -14 6t-6 15q0 5 2 11q8 22 17 46t23 56.5t35 78.5t52 109.5t76 150.5t105 202q5 11 13.5 18t20.5 7h525q11 0 18 -7t7 -18v-66q0 -10 -7 -17t-18 -7h-317v-177h295q11 0 18 -6.5t7 -17.5v-62q0 -11 -7 -17.5t-18 -6.5h-295v-183h325q11 0 18 -7t7 -18v-66
q0 -10 -7 -17t-18 -7h-436q-10 0 -17 7t-7 17v117h-216q-20 -38 -32.5 -61t-18.5 -35t-8.5 -17.5t-3.5 -8.5q-3 -7 -9.5 -13t-19.5 -6h-89zM247 256h175v325h-13z" />
    <glyph glyph-name="Ccedilla" unicode="&#xc7;" horiz-adv-x="684" 
d="M343 -220q-27 1 -48.5 10t-31 21t-0.5 20l17 15q9 8 16 4.5t17 -10t30 -6.5q16 0 26.5 9.5t10.5 24.5q0 14 -10 23t-27 9q-13 0 -23 -3.5t-18.5 -5t-15.5 6.5l-18 18q-6 7 -4.5 14.5t6.5 16.5l20 47q-75 10 -126.5 44t-78.5 90.5t-31 132.5q-1 41 -1 88t1 90
q4 84 38.5 145t99 93.5t156.5 32.5q68 0 122 -18t92 -49.5t59 -73.5t22 -91q1 -9 -5.5 -15t-15.5 -6h-95q-11 0 -18 5.5t-10 18.5q-16 66 -55 90t-97 24q-67 0 -107 -37.5t-43 -123.5q-3 -82 0 -168t43 -123.5t107 -37.5q58 0 97.5 24.5t54.5 89.5q3 14 10 19t18 5h95
q9 0 15.5 -6t5.5 -15q-1 -49 -22 -91t-59 -73.5t-92 -49.5t-122 -18l-21 -43q6 3 16.5 5t17.5 2q35 0 56.5 -24t21.5 -61q0 -38 -24.5 -64t-71.5 -25z" />
    <glyph glyph-name="Egrave" unicode="&#xc8;" horiz-adv-x="622" 
d="M102 0q-10 0 -17 7t-7 17v651q0 11 7 18t17 7h440q11 0 18 -7t7 -18v-66q0 -10 -7 -17t-18 -7h-329v-177h307q11 0 18 -6.5t7 -17.5v-62q0 -11 -7 -17.5t-18 -6.5h-307v-183h337q11 0 18 -7t7 -18v-66q0 -10 -7 -17t-18 -7h-448zM293 750q-13 0 -20.5 3t-15.5 10
l-124 102q-5 5 -5 12q0 19 19 19h107q13 0 20.5 -3.5t16.5 -14.5l82 -99q5 -5 5 -13q0 -16 -16 -16h-69z" />
    <glyph glyph-name="Eacute" unicode="&#xc9;" horiz-adv-x="622" 
d="M102 0q-10 0 -17 7t-7 17v651q0 11 7 18t17 7h440q11 0 18 -7t7 -18v-66q0 -10 -7 -17t-18 -7h-329v-177h307q11 0 18 -6.5t7 -17.5v-62q0 -11 -7 -17.5t-18 -6.5h-307v-183h337q11 0 18 -7t7 -18v-66q0 -10 -7 -17t-18 -7h-448zM267 750q-16 0 -16 16q0 8 5 13l81 99
q10 11 17 14.5t20 3.5h107q19 0 19 -19q0 -7 -5 -12l-124 -102q-8 -7 -15.5 -10t-19.5 -3h-69z" />
    <glyph glyph-name="Ecircumflex" unicode="&#xca;" horiz-adv-x="622" 
d="M102 0q-10 0 -17 7t-7 17v651q0 11 7 18t17 7h440q11 0 18 -7t7 -18v-66q0 -10 -7 -17t-18 -7h-329v-177h307q11 0 18 -6.5t7 -17.5v-62q0 -11 -7 -17.5t-18 -6.5h-307v-183h337q11 0 18 -7t7 -18v-66q0 -10 -7 -17t-18 -7h-448zM156 750q-15 0 -15 13q0 8 9 17l98 100
q10 11 17.5 13.5t16.5 2.5h58q10 0 17 -2.5t17 -13.5l98 -100q9 -9 9 -17q0 -13 -15 -13h-39q-8 0 -16 1.5t-15 5.5l-85 53l-85 -53q-6 -4 -14.5 -5.5t-16.5 -1.5h-39z" />
    <glyph glyph-name="Edieresis" unicode="&#xcb;" horiz-adv-x="622" 
d="M102 0q-10 0 -17 7t-7 17v651q0 11 7 18t17 7h440q11 0 18 -7t7 -18v-66q0 -10 -7 -17t-18 -7h-329v-177h307q11 0 18 -6.5t7 -17.5v-62q0 -11 -7 -17.5t-18 -6.5h-307v-183h337q11 0 18 -7t7 -18v-66q0 -10 -7 -17t-18 -7h-448zM383 750q-10 0 -16 6t-6 16v73
q0 10 6 16.5t16 6.5h73q10 0 16.5 -6.5t6.5 -16.5v-73q0 -10 -6.5 -16t-16.5 -6h-73zM165 750q-10 0 -16 6t-6 16v73q0 10 6 16.5t16 6.5h73q10 0 16.5 -6.5t6.5 -16.5v-73q0 -10 -6.5 -16t-16.5 -6h-73z" />
    <glyph glyph-name="Igrave" unicode="&#xcc;" horiz-adv-x="299" 
d="M102 0q-10 0 -17 7t-7 17v652q0 10 7 17t17 7h94q11 0 17.5 -7t6.5 -17v-652q0 -10 -6.5 -17t-17.5 -7h-94zM131 750q-13 0 -20.5 3t-15.5 10l-124 102q-5 5 -5 12q0 19 19 19h107q13 0 20.5 -3.5t16.5 -14.5l82 -99q5 -5 5 -13q0 -16 -16 -16h-69z" />
    <glyph glyph-name="Iacute" unicode="&#xcd;" horiz-adv-x="299" 
d="M102 0q-10 0 -17 7t-7 17v652q0 10 7 17t17 7h94q11 0 17.5 -7t6.5 -17v-652q0 -10 -6.5 -17t-17.5 -7h-94zM105 750q-16 0 -16 16q0 8 5 13l81 99q10 11 17 14.5t20 3.5h107q19 0 19 -19q0 -7 -5 -12l-124 -102q-8 -7 -15.5 -10t-19.5 -3h-69z" />
    <glyph glyph-name="Icircumflex" unicode="&#xce;" horiz-adv-x="299" 
d="M102 0q-10 0 -17 7t-7 17v652q0 10 7 17t17 7h94q11 0 17.5 -7t6.5 -17v-652q0 -10 -6.5 -17t-17.5 -7h-94zM-5 750q-15 0 -15 13q0 8 9 17l98 100q10 11 17.5 13.5t16.5 2.5h58q10 0 17 -2.5t17 -13.5l98 -100q9 -9 9 -17q0 -13 -15 -13h-39q-8 0 -16 1.5t-15 5.5
l-85 53l-85 -53q-6 -4 -14.5 -5.5t-16.5 -1.5h-39z" />
    <glyph glyph-name="Idieresis" unicode="&#xcf;" horiz-adv-x="299" 
d="M102 0q-10 0 -17 7t-7 17v652q0 10 7 17t17 7h94q11 0 17.5 -7t6.5 -17v-652q0 -10 -6.5 -17t-17.5 -7h-94zM221 750q-10 0 -16 6t-6 16v73q0 10 6 16.5t16 6.5h73q10 0 16.5 -6.5t6.5 -16.5v-73q0 -10 -6.5 -16t-16.5 -6h-73zM3 750q-10 0 -16 6t-6 16v73q0 10 6 16.5
t16 6.5h73q10 0 16.5 -6.5t6.5 -16.5v-73q0 -10 -6.5 -16t-16.5 -6h-73z" />
    <glyph glyph-name="Eth" unicode="&#xd0;" horiz-adv-x="717" 
d="M116 0q-11 0 -18 7t-7 17v279h-52q-11 0 -17.5 6.5t-6.5 17.5v50q0 10 6.5 17t17.5 7h52v274q0 11 7 18t18 7h243q101 0 167.5 -31t100 -92t33.5 -149q1 -42 1 -77.5t-1 -77.5q-1 -93 -33.5 -153.5t-98 -90t-166.5 -29.5h-246zM230 115h129q56 0 90.5 16t51 51.5
t16.5 93.5q1 28 1 51.5v46.5t-1 51q-1 82 -38.5 121t-122.5 39h-126v-184h112q11 0 17.5 -7t6.5 -17v-50q0 -11 -6.5 -17.5t-17.5 -6.5h-112v-188z" />
    <glyph glyph-name="Ntilde" unicode="&#xd1;" horiz-adv-x="707" 
d="M102 0q-10 0 -17 7t-7 17v651q0 11 7 18t17 7h77q14 0 20.5 -6.5t8.5 -9.5l288 -448v439q0 11 6.5 18t17.5 7h84q11 0 18 -7t7 -18v-650q0 -11 -7 -18t-17 -7h-78q-14 0 -20 7t-9 9l-287 438v-430q0 -10 -7 -17t-18 -7h-84zM409 745q-26 0 -43.5 8.5t-31.5 17.5t-30 9
q-13 0 -18.5 -7.5t-10.5 -15t-16 -7.5h-46q-7 0 -12 5t-5 12q0 15 5.5 34t18 36.5t31.5 28.5t44 11q27 0 44.5 -8.5t31.5 -17.5t30 -9q13 0 18.5 8t10.5 15.5t16 7.5h46q8 0 12.5 -5.5t4.5 -12.5q0 -15 -6 -34t-18.5 -36t-31 -28.5t-44.5 -11.5z" />
    <glyph glyph-name="Ograve" unicode="&#xd2;" horiz-adv-x="695" 
d="M347 -10q-89 0 -153 29.5t-100 91t-39 153.5q-1 43 -1 85t1 86q3 91 40 152t101.5 92t150.5 31t151 -31t102 -92t40 -152q2 -44 2 -86t-2 -85q-3 -92 -39 -153.5t-100.5 -91t-153.5 -29.5zM347 105q65 0 106 38.5t44 125.5q2 44 2 81.5t-2 80.5q-2 58 -21.5 94.5
t-52.5 53t-76 16.5q-42 0 -75 -16.5t-52.5 -53t-21.5 -94.5q-1 -43 -1 -80.5t1 -81.5q3 -87 44 -125.5t105 -38.5zM329 750q-13 0 -20.5 3t-15.5 10l-124 102q-5 5 -5 12q0 19 19 19h107q13 0 20.5 -3.5t16.5 -14.5l82 -99q5 -5 5 -13q0 -16 -16 -16h-69z" />
    <glyph glyph-name="Oacute" unicode="&#xd3;" horiz-adv-x="695" 
d="M347 -10q-89 0 -153 29.5t-100 91t-39 153.5q-1 43 -1 85t1 86q3 91 40 152t101.5 92t150.5 31t151 -31t102 -92t40 -152q2 -44 2 -86t-2 -85q-3 -92 -39 -153.5t-100.5 -91t-153.5 -29.5zM347 105q65 0 106 38.5t44 125.5q2 44 2 81.5t-2 80.5q-2 58 -21.5 94.5
t-52.5 53t-76 16.5q-42 0 -75 -16.5t-52.5 -53t-21.5 -94.5q-1 -43 -1 -80.5t1 -81.5q3 -87 44 -125.5t105 -38.5zM302 750q-16 0 -16 16q0 8 5 13l81 99q10 11 17 14.5t20 3.5h107q19 0 19 -19q0 -7 -5 -12l-124 -102q-8 -7 -15.5 -10t-19.5 -3h-69z" />
    <glyph glyph-name="Ocircumflex" unicode="&#xd4;" horiz-adv-x="695" 
d="M347 -10q-89 0 -153 29.5t-100 91t-39 153.5q-1 43 -1 85t1 86q3 91 40 152t101.5 92t150.5 31t151 -31t102 -92t40 -152q2 -44 2 -86t-2 -85q-3 -92 -39 -153.5t-100.5 -91t-153.5 -29.5zM347 105q65 0 106 38.5t44 125.5q2 44 2 81.5t-2 80.5q-2 58 -21.5 94.5
t-52.5 53t-76 16.5q-42 0 -75 -16.5t-52.5 -53t-21.5 -94.5q-1 -43 -1 -80.5t1 -81.5q3 -87 44 -125.5t105 -38.5zM192 750q-15 0 -15 13q0 8 9 17l98 100q10 11 17.5 13.5t16.5 2.5h58q10 0 17 -2.5t17 -13.5l98 -100q9 -9 9 -17q0 -13 -15 -13h-39q-8 0 -16 1.5t-15 5.5
l-85 53l-85 -53q-6 -4 -14.5 -5.5t-16.5 -1.5h-39z" />
    <glyph glyph-name="Otilde" unicode="&#xd5;" horiz-adv-x="695" 
d="M347 -10q-89 0 -153 29.5t-100 91t-39 153.5q-1 43 -1 85t1 86q3 91 40 152t101.5 92t150.5 31t151 -31t102 -92t40 -152q2 -44 2 -86t-2 -85q-3 -92 -39 -153.5t-100.5 -91t-153.5 -29.5zM347 105q65 0 106 38.5t44 125.5q2 44 2 81.5t-2 80.5q-2 58 -21.5 94.5
t-52.5 53t-76 16.5q-42 0 -75 -16.5t-52.5 -53t-21.5 -94.5q-1 -43 -1 -80.5t1 -81.5q3 -87 44 -125.5t105 -38.5zM403 745q-26 0 -43.5 8.5t-31.5 17.5t-30 9q-13 0 -18.5 -7.5t-10.5 -15t-16 -7.5h-46q-7 0 -12 5t-5 12q0 15 5.5 34t18 36.5t31.5 28.5t44 11
q27 0 44.5 -8.5t31.5 -17.5t30 -9q13 0 18.5 8t10.5 15.5t16 7.5h46q8 0 12.5 -5.5t4.5 -12.5q0 -15 -6 -34t-18.5 -36t-31 -28.5t-44.5 -11.5z" />
    <glyph glyph-name="Odieresis" unicode="&#xd6;" horiz-adv-x="695" 
d="M347 -10q-89 0 -153 29.5t-100 91t-39 153.5q-1 43 -1 85t1 86q3 91 40 152t101.5 92t150.5 31t151 -31t102 -92t40 -152q2 -44 2 -86t-2 -85q-3 -92 -39 -153.5t-100.5 -91t-153.5 -29.5zM347 105q65 0 106 38.5t44 125.5q2 44 2 81.5t-2 80.5q-2 58 -21.5 94.5
t-52.5 53t-76 16.5q-42 0 -75 -16.5t-52.5 -53t-21.5 -94.5q-1 -43 -1 -80.5t1 -81.5q3 -87 44 -125.5t105 -38.5zM419 750q-10 0 -16 6t-6 16v73q0 10 6 16.5t16 6.5h73q10 0 16.5 -6.5t6.5 -16.5v-73q0 -10 -6.5 -16t-16.5 -6h-73zM201 750q-10 0 -16 6t-6 16v73
q0 10 6 16.5t16 6.5h73q10 0 16.5 -6.5t6.5 -16.5v-73q0 -10 -6.5 -16t-16.5 -6h-73z" />
    <glyph glyph-name="multiply" unicode="&#xd7;" horiz-adv-x="581" 
d="M116 69l-55 56q-7 7 -7 16.5t7 16.5l140 140l-140 141q-7 7 -7 16.5t7 17.5l55 56q8 7 17.5 7t16.5 -7l140 -141l141 140q7 8 16.5 8t16.5 -8l56 -56q8 -7 8 -16.5t-8 -16.5l-140 -141l140 -139q8 -8 8 -17.5t-8 -16.5l-56 -56q-7 -7 -16.5 -7t-16.5 7l-141 140
l-140 -140q-7 -7 -16.5 -7t-17.5 7z" />
    <glyph glyph-name="Oslash" unicode="&#xd8;" horiz-adv-x="695" 
d="M347 -10q-89 0 -153 29.5t-100 91t-39 153.5q-1 43 -1 85t1 86q3 91 40 152t101.5 92t150.5 31t151 -31t102 -92t40 -152q2 -44 2 -86t-2 -85q-3 -92 -39 -153.5t-100.5 -91t-153.5 -29.5zM347 105q65 0 106 38.5t44 125.5q2 44 2 81.5t-2 80.5q-2 58 -21.5 94.5
t-52.5 53t-76 16.5q-42 0 -75 -16.5t-52.5 -53t-21.5 -94.5q-1 -43 -1 -80.5t1 -81.5q3 -87 44 -125.5t105 -38.5zM94 -65q-13 0 -18 11t2 24l471 780q2 4 7 9.5t15 5.5h30q12 0 17.5 -10t-2.5 -24l-472 -781q-2 -4 -7 -9.5t-16 -5.5h-27z" />
    <glyph glyph-name="Ugrave" unicode="&#xd9;" horiz-adv-x="713" 
d="M357 -10q-87 0 -151 29.5t-99 91t-35 157.5v407q0 11 7 18t17 7h91q11 0 17.5 -7t6.5 -18v-407q0 -82 39 -121.5t107 -39.5t106.5 39.5t38.5 121.5v407q0 11 7 18t18 7h90q11 0 17.5 -7t6.5 -18v-407q0 -96 -34.5 -157.5t-98 -91t-151.5 -29.5zM339 750q-13 0 -20.5 3
t-15.5 10l-124 102q-5 5 -5 12q0 19 19 19h107q13 0 20.5 -3.5t16.5 -14.5l82 -99q5 -5 5 -13q0 -16 -16 -16h-69z" />
    <glyph glyph-name="Uacute" unicode="&#xda;" horiz-adv-x="713" 
d="M357 -10q-87 0 -151 29.5t-99 91t-35 157.5v407q0 11 7 18t17 7h91q11 0 17.5 -7t6.5 -18v-407q0 -82 39 -121.5t107 -39.5t106.5 39.5t38.5 121.5v407q0 11 7 18t18 7h90q11 0 17.5 -7t6.5 -18v-407q0 -96 -34.5 -157.5t-98 -91t-151.5 -29.5zM312 750q-16 0 -16 16
q0 8 5 13l81 99q10 11 17 14.5t20 3.5h107q19 0 19 -19q0 -7 -5 -12l-124 -102q-8 -7 -15.5 -10t-19.5 -3h-69z" />
    <glyph glyph-name="Ucircumflex" unicode="&#xdb;" horiz-adv-x="713" 
d="M357 -10q-87 0 -151 29.5t-99 91t-35 157.5v407q0 11 7 18t17 7h91q11 0 17.5 -7t6.5 -18v-407q0 -82 39 -121.5t107 -39.5t106.5 39.5t38.5 121.5v407q0 11 7 18t18 7h90q11 0 17.5 -7t6.5 -18v-407q0 -96 -34.5 -157.5t-98 -91t-151.5 -29.5zM202 750q-15 0 -15 13
q0 8 9 17l98 100q10 11 17.5 13.5t16.5 2.5h58q10 0 17 -2.5t17 -13.5l98 -100q9 -9 9 -17q0 -13 -15 -13h-39q-8 0 -16 1.5t-15 5.5l-85 53l-85 -53q-6 -4 -14.5 -5.5t-16.5 -1.5h-39z" />
    <glyph glyph-name="Udieresis" unicode="&#xdc;" horiz-adv-x="713" 
d="M357 -10q-87 0 -151 29.5t-99 91t-35 157.5v407q0 11 7 18t17 7h91q11 0 17.5 -7t6.5 -18v-407q0 -82 39 -121.5t107 -39.5t106.5 39.5t38.5 121.5v407q0 11 7 18t18 7h90q11 0 17.5 -7t6.5 -18v-407q0 -96 -34.5 -157.5t-98 -91t-151.5 -29.5zM429 750q-10 0 -16 6
t-6 16v73q0 10 6 16.5t16 6.5h73q10 0 16.5 -6.5t6.5 -16.5v-73q0 -10 -6.5 -16t-16.5 -6h-73zM211 750q-10 0 -16 6t-6 16v73q0 10 6 16.5t16 6.5h73q10 0 16.5 -6.5t6.5 -16.5v-73q0 -10 -6.5 -16t-16.5 -6h-73z" />
    <glyph glyph-name="Yacute" unicode="&#xdd;" horiz-adv-x="664" 
d="M286 0q-10 0 -17 7t-7 17v226l-236 418q-1 2 -2 5t-1 6q0 9 6 15t14 6h89q12 0 19.5 -6t10.5 -13l170 -291l169 291q4 7 11.5 13t19.5 6h88q9 0 15 -6t6 -15q0 -3 -0.5 -6t-2.5 -5l-236 -418v-226q0 -10 -7 -17t-18 -7h-91zM287 750q-16 0 -16 16q0 8 5 13l81 99
q10 11 17 14.5t20 3.5h107q19 0 19 -19q0 -7 -5 -12l-124 -102q-8 -7 -15.5 -10t-19.5 -3h-69z" />
    <glyph glyph-name="Thorn" unicode="&#xde;" horiz-adv-x="662" 
d="M102 0q-10 0 -17 7t-7 17v652q0 10 7 17t17 7h95q11 0 17.5 -7t6.5 -17v-101h147q79 0 137.5 -25t90.5 -74t32 -124q0 -74 -32 -122.5t-90.5 -72.5t-137.5 -24h-147v-109q0 -10 -6.5 -17t-17.5 -7h-95zM219 244h146q58 0 89 27.5t31 81.5q0 50 -29 80.5t-91 30.5h-146
v-220z" />
    <glyph glyph-name="germandbls" unicode="&#xdf;" horiz-adv-x="614" 
d="M91 0q-10 0 -17 7t-7 17v458q0 62 25 113.5t77.5 83t137.5 31.5t137 -29t75.5 -72.5t23.5 -91.5q0 -36 -10.5 -63.5t-28.5 -46.5t-38 -31q39 -14 62.5 -39t33.5 -58t10 -71q0 -36 -13.5 -72.5t-42.5 -67.5t-75 -49.5t-111 -18.5h-58q-13 0 -20 7t-7 17v55q0 10 7 17t20 7
h39q61 0 93 31.5t32 77.5q0 47 -32 78.5t-94 31.5h-40q-12 0 -18.5 7t-6.5 17v48q0 11 5.5 17.5t19.5 6.5h34q55 1 84 25.5t29 68.5q0 41 -30 68t-80 27t-80 -30.5t-30 -94.5v-458q0 -10 -6.5 -17t-17.5 -7h-82z" />
    <glyph glyph-name="agrave" unicode="&#xe0;" horiz-adv-x="571" 
d="M217 -10q-52 0 -94 20.5t-66.5 55t-24.5 77.5q0 70 57 111.5t149 55.5l137 20v21q0 42 -21 65t-72 23q-36 0 -58.5 -14.5t-33.5 -38.5q-8 -13 -23 -13h-79q-11 0 -16.5 6t-5.5 16q1 16 13.5 39t38 44.5t66.5 36.5t99 15q63 0 106.5 -15.5t69.5 -41.5t38 -61t12 -74v-314
q0 -10 -7 -17t-17 -7h-81q-11 0 -17.5 7t-6.5 17v39q-13 -18 -35 -35t-53.5 -27.5t-74.5 -10.5zM251 85q35 0 63.5 15t45 46.5t16.5 79.5v21l-100 -16q-59 -9 -88 -29t-29 -49q0 -22 13.5 -37.5t34.5 -23t44 -7.5zM270 595q-12 0 -19.5 3t-15.5 10l-125 102q-5 5 -5 12
q0 19 19 19h100q13 0 20.5 -3.5t16.5 -14.5l82 -99q5 -5 5 -13q0 -16 -16 -16h-62z" />
    <glyph glyph-name="aacute" unicode="&#xe1;" horiz-adv-x="571" 
d="M217 -10q-52 0 -94 20.5t-66.5 55t-24.5 77.5q0 70 57 111.5t149 55.5l137 20v21q0 42 -21 65t-72 23q-36 0 -58.5 -14.5t-33.5 -38.5q-8 -13 -23 -13h-79q-11 0 -16.5 6t-5.5 16q1 16 13.5 39t38 44.5t66.5 36.5t99 15q63 0 106.5 -15.5t69.5 -41.5t38 -61t12 -74v-314
q0 -10 -7 -17t-17 -7h-81q-11 0 -17.5 7t-6.5 17v39q-13 -18 -35 -35t-53.5 -27.5t-74.5 -10.5zM251 85q35 0 63.5 15t45 46.5t16.5 79.5v21l-100 -16q-59 -9 -88 -29t-29 -49q0 -22 13.5 -37.5t34.5 -23t44 -7.5zM241 595q-16 0 -16 16q0 8 5 13l81 99q10 11 17 14.5
t20 3.5h100q19 0 19 -19q0 -7 -5 -12l-124 -102q-8 -7 -15.5 -10t-20.5 -3h-61z" />
    <glyph glyph-name="acircumflex" unicode="&#xe2;" horiz-adv-x="571" 
d="M217 -10q-52 0 -94 20.5t-66.5 55t-24.5 77.5q0 70 57 111.5t149 55.5l137 20v21q0 42 -21 65t-72 23q-36 0 -58.5 -14.5t-33.5 -38.5q-8 -13 -23 -13h-79q-11 0 -16.5 6t-5.5 16q1 16 13.5 39t38 44.5t66.5 36.5t99 15q63 0 106.5 -15.5t69.5 -41.5t38 -61t12 -74v-314
q0 -10 -7 -17t-17 -7h-81q-11 0 -17.5 7t-6.5 17v39q-13 -18 -35 -35t-53.5 -27.5t-74.5 -10.5zM251 85q35 0 63.5 15t45 46.5t16.5 79.5v21l-100 -16q-59 -9 -88 -29t-29 -49q0 -22 13.5 -37.5t34.5 -23t44 -7.5zM131 595q-15 0 -15 13q0 8 9 17l97 100q11 11 18.5 13.5
t15.5 2.5h55q9 0 16.5 -2.5t17.5 -13.5l97 -100q9 -9 9 -17q0 -13 -15 -13h-36q-8 0 -16.5 1.5t-15.5 5.5l-84 53l-85 -53q-7 -4 -15.5 -5.5t-15.5 -1.5h-37z" />
    <glyph glyph-name="atilde" unicode="&#xe3;" horiz-adv-x="571" 
d="M217 -10q-52 0 -94 20.5t-66.5 55t-24.5 77.5q0 70 57 111.5t149 55.5l137 20v21q0 42 -21 65t-72 23q-36 0 -58.5 -14.5t-33.5 -38.5q-8 -13 -23 -13h-79q-11 0 -16.5 6t-5.5 16q1 16 13.5 39t38 44.5t66.5 36.5t99 15q63 0 106.5 -15.5t69.5 -41.5t38 -61t12 -74v-314
q0 -10 -7 -17t-17 -7h-81q-11 0 -17.5 7t-6.5 17v39q-13 -18 -35 -35t-53.5 -27.5t-74.5 -10.5zM251 85q35 0 63.5 15t45 46.5t16.5 79.5v21l-100 -16q-59 -9 -88 -29t-29 -49q0 -22 13.5 -37.5t34.5 -23t44 -7.5zM338 590q-26 0 -42 8.5t-29.5 17.5t-29.5 9
q-13 0 -18.5 -7.5t-10.5 -15t-16 -7.5h-46q-7 0 -12 5t-5 12q0 15 5.5 33.5t17.5 35.5t30.5 27.5t43.5 10.5q27 0 43 -8.5t29.5 -17.5t29.5 -9q13 0 18.5 8t10.5 15.5t16 7.5h46q8 0 12.5 -5.5t4.5 -12.5q0 -15 -5.5 -33.5t-17.5 -35.5t-30.5 -27.5t-44.5 -10.5z" />
    <glyph glyph-name="adieresis" unicode="&#xe4;" horiz-adv-x="571" 
d="M217 -10q-52 0 -94 20.5t-66.5 55t-24.5 77.5q0 70 57 111.5t149 55.5l137 20v21q0 42 -21 65t-72 23q-36 0 -58.5 -14.5t-33.5 -38.5q-8 -13 -23 -13h-79q-11 0 -16.5 6t-5.5 16q1 16 13.5 39t38 44.5t66.5 36.5t99 15q63 0 106.5 -15.5t69.5 -41.5t38 -61t12 -74v-314
q0 -10 -7 -17t-17 -7h-81q-11 0 -17.5 7t-6.5 17v39q-13 -18 -35 -35t-53.5 -27.5t-74.5 -10.5zM251 85q35 0 63.5 15t45 46.5t16.5 79.5v21l-100 -16q-59 -9 -88 -29t-29 -49q0 -22 13.5 -37.5t34.5 -23t44 -7.5zM340 614q-10 0 -16 6t-6 16v73q0 10 6 16.5t16 6.5h73
q10 0 16.5 -6.5t6.5 -16.5v-73q0 -10 -6.5 -16t-16.5 -6h-73zM152 614q-10 0 -16 6t-6 16v73q0 10 6 16.5t16 6.5h73q10 0 16.5 -6.5t6.5 -16.5v-73q0 -10 -6.5 -16t-16.5 -6h-73z" />
    <glyph glyph-name="aring" unicode="&#xe5;" horiz-adv-x="571" 
d="M217 -10q-52 0 -94 20.5t-66.5 55t-24.5 77.5q0 70 57 111.5t149 55.5l137 20v21q0 42 -21 65t-72 23q-36 0 -58.5 -14.5t-33.5 -38.5q-8 -13 -23 -13h-79q-11 0 -16.5 6t-5.5 16q1 16 13.5 39t38 44.5t66.5 36.5t99 15q63 0 106.5 -15.5t69.5 -41.5t38 -61t12 -74v-314
q0 -10 -7 -17t-17 -7h-81q-11 0 -17.5 7t-6.5 17v39q-13 -18 -35 -35t-53.5 -27.5t-74.5 -10.5zM251 85q35 0 63.5 15t45 46.5t16.5 79.5v21l-100 -16q-59 -9 -88 -29t-29 -49q0 -22 13.5 -37.5t34.5 -23t44 -7.5zM283 590q-36 0 -62 23.5t-26 59.5t26 59.5t62 23.5
t62 -23.5t26 -59.5t-26 -59.5t-62 -23.5zM283 643q13 0 21.5 8.5t8.5 21.5t-8.5 21.5t-21.5 8.5t-21.5 -8.5t-8.5 -21.5t8.5 -21.5t21.5 -8.5z" />
    <glyph glyph-name="ae" unicode="&#xe6;" horiz-adv-x="903" 
d="M226 -10q-59 0 -103 20.5t-67.5 55t-23.5 77.5q0 70 57 112t150 56l137 20v21q0 42 -21.5 64.5t-71.5 22.5q-29 0 -48 -9.5t-32 -22t-23 -22.5q-3 -7 -6.5 -9.5t-8.5 -2.5h-77q-9 0 -15.5 6t-6.5 16q0 16 12.5 39t38.5 44.5t67.5 36.5t99.5 15q68 0 108 -19t61 -48
q29 30 69.5 48.5t96.5 18.5q71 0 118 -24t74.5 -63t39 -85.5t11.5 -91.5v-21q0 -10 -7 -17t-18 -7h-326v-8q1 -46 16.5 -75t40 -42t50.5 -13t51 11.5t43 34.5q8 11 14 14t17 3h84q22 0 22 -21q0 -14 -14.5 -37t-43 -45t-71.5 -37.5t-102 -15.5q-68 0 -115 24.5t-76 65.5
q-35 -48 -87.5 -69t-113.5 -21zM252 85q35 0 63.5 15t45 46.5t16.5 79.5v21l-100 -16q-60 -9 -88.5 -29t-28.5 -49q0 -22 13 -37.5t34 -23t45 -7.5zM511 305h215v4q0 58 -26.5 94t-80.5 36q-28 0 -52 -14t-39.5 -42.5t-16.5 -73.5v-4z" />
    <glyph glyph-name="ccedilla" unicode="&#xe7;" horiz-adv-x="571" 
d="M290 -220q-28 1 -49.5 10t-31 21t0.5 20l17 15q9 8 15.5 4.5t17 -10t30.5 -6.5q15 0 26 9.5t11 24.5q0 14 -10.5 23t-26.5 9q-14 0 -24 -3.5t-18 -5t-16 6.5l-18 18q-6 7 -4 14.5t6 16.5l21 48q-86 13 -137 71.5t-54 153.5q-1 15 -1 39.5t1 40.5q3 73 33.5 124.5t85 78.5
t126.5 27q64 0 109 -17.5t74 -45t43.5 -57t15.5 -53.5q1 -11 -6.5 -17.5t-17.5 -6.5h-88q-10 0 -15.5 5t-10.5 15q-15 40 -39.5 56.5t-62.5 16.5q-50 0 -79.5 -31.5t-31.5 -99.5q-2 -38 0 -70q2 -69 31.5 -100t79.5 -31q39 0 63 16.5t39 56.5q5 10 10.5 15t15.5 5h88
q10 0 17.5 -6.5t6.5 -17.5q-1 -22 -15 -51.5t-42 -57t-73 -46t-109 -18.5l-21 -43q6 3 16.5 5t18.5 2q35 0 56.5 -24t21.5 -61q0 -38 -25 -64t-71 -25z" />
    <glyph glyph-name="egrave" unicode="&#xe8;" horiz-adv-x="577" 
d="M290 -10q-111 0 -176 64t-70 182q-1 10 -1 25.5t1 24.5q4 76 34.5 130.5t84.5 84t127 29.5q81 0 136 -33.5t83 -93t28 -137.5v-21q0 -10 -7 -17t-18 -7h-332v-3v-5q1 -35 13.5 -64.5t37 -47.5t58.5 -18q28 0 47 8.5t31 19.5t17 18q9 12 14.5 14.5t16.5 2.5h86
q10 0 16.5 -6t5.5 -15q-1 -16 -16.5 -39t-44.5 -45t-72.5 -36.5t-99.5 -14.5zM180 305h221v3q0 39 -13 68.5t-38 46t-60 16.5t-60 -16.5t-37.5 -46t-12.5 -68.5v-3zM276 595q-12 0 -19.5 3t-15.5 10l-125 102q-5 5 -5 12q0 19 19 19h100q13 0 20.5 -3.5t16.5 -14.5l82 -99
q5 -5 5 -13q0 -16 -16 -16h-62z" />
    <glyph glyph-name="eacute" unicode="&#xe9;" horiz-adv-x="577" 
d="M290 -10q-111 0 -176 64t-70 182q-1 10 -1 25.5t1 24.5q4 76 34.5 130.5t84.5 84t127 29.5q81 0 136 -33.5t83 -93t28 -137.5v-21q0 -10 -7 -17t-18 -7h-332v-3v-5q1 -35 13.5 -64.5t37 -47.5t58.5 -18q28 0 47 8.5t31 19.5t17 18q9 12 14.5 14.5t16.5 2.5h86
q10 0 16.5 -6t5.5 -15q-1 -16 -16.5 -39t-44.5 -45t-72.5 -36.5t-99.5 -14.5zM180 305h221v3q0 39 -13 68.5t-38 46t-60 16.5t-60 -16.5t-37.5 -46t-12.5 -68.5v-3zM247 595q-16 0 -16 16q0 8 5 13l81 99q10 11 17 14.5t20 3.5h100q19 0 19 -19q0 -7 -5 -12l-124 -102
q-8 -7 -15.5 -10t-20.5 -3h-61z" />
    <glyph glyph-name="ecircumflex" unicode="&#xea;" horiz-adv-x="577" 
d="M290 -10q-111 0 -176 64t-70 182q-1 10 -1 25.5t1 24.5q4 76 34.5 130.5t84.5 84t127 29.5q81 0 136 -33.5t83 -93t28 -137.5v-21q0 -10 -7 -17t-18 -7h-332v-3v-5q1 -35 13.5 -64.5t37 -47.5t58.5 -18q28 0 47 8.5t31 19.5t17 18q9 12 14.5 14.5t16.5 2.5h86
q10 0 16.5 -6t5.5 -15q-1 -16 -16.5 -39t-44.5 -45t-72.5 -36.5t-99.5 -14.5zM180 305h221v3q0 39 -13 68.5t-38 46t-60 16.5t-60 -16.5t-37.5 -46t-12.5 -68.5v-3zM137 595q-15 0 -15 13q0 8 9 17l97 100q11 11 18.5 13.5t15.5 2.5h55q9 0 16.5 -2.5t17.5 -13.5l97 -100
q9 -9 9 -17q0 -13 -15 -13h-36q-8 0 -16.5 1.5t-15.5 5.5l-84 53l-85 -53q-7 -4 -15.5 -5.5t-15.5 -1.5h-37z" />
    <glyph glyph-name="edieresis" unicode="&#xeb;" horiz-adv-x="577" 
d="M290 -10q-111 0 -176 64t-70 182q-1 10 -1 25.5t1 24.5q4 76 34.5 130.5t84.5 84t127 29.5q81 0 136 -33.5t83 -93t28 -137.5v-21q0 -10 -7 -17t-18 -7h-332v-3v-5q1 -35 13.5 -64.5t37 -47.5t58.5 -18q28 0 47 8.5t31 19.5t17 18q9 12 14.5 14.5t16.5 2.5h86
q10 0 16.5 -6t5.5 -15q-1 -16 -16.5 -39t-44.5 -45t-72.5 -36.5t-99.5 -14.5zM180 305h221v3q0 39 -13 68.5t-38 46t-60 16.5t-60 -16.5t-37.5 -46t-12.5 -68.5v-3zM346 614q-10 0 -16 6t-6 16v73q0 10 6 16.5t16 6.5h73q10 0 16.5 -6.5t6.5 -16.5v-73q0 -10 -6.5 -16
t-16.5 -6h-73zM158 614q-10 0 -16 6t-6 16v73q0 10 6 16.5t16 6.5h73q10 0 16.5 -6.5t6.5 -16.5v-73q0 -10 -6.5 -16t-16.5 -6h-73z" />
    <glyph glyph-name="igrave" unicode="&#xec;" horiz-adv-x="264" 
d="M90 0q-10 0 -17 7t-7 17v472q0 10 7 17t17 7h83q11 0 17.5 -7t6.5 -17v-472q0 -10 -6.5 -17t-17.5 -7h-83zM119 595q-12 0 -19.5 3t-15.5 10l-125 102q-5 5 -5 12q0 19 19 19h100q13 0 20.5 -3.5t16.5 -14.5l82 -99q5 -5 5 -13q0 -16 -16 -16h-62z" />
    <glyph glyph-name="iacute" unicode="&#xed;" horiz-adv-x="264" 
d="M90 0q-10 0 -17 7t-7 17v472q0 10 7 17t17 7h83q11 0 17.5 -7t6.5 -17v-472q0 -10 -6.5 -17t-17.5 -7h-83zM90 595q-16 0 -16 16q0 8 5 13l81 99q10 11 17 14.5t20 3.5h100q19 0 19 -19q0 -7 -5 -12l-124 -102q-8 -7 -15.5 -10t-20.5 -3h-61z" />
    <glyph glyph-name="icircumflex" unicode="&#xee;" horiz-adv-x="264" 
d="M90 0q-10 0 -17 7t-7 17v472q0 10 7 17t17 7h83q11 0 17.5 -7t6.5 -17v-472q0 -10 -6.5 -17t-17.5 -7h-83zM-20 595q-15 0 -15 13q0 8 9 17l97 100q11 11 18.5 13.5t15.5 2.5h55q9 0 16.5 -2.5t17.5 -13.5l97 -100q9 -9 9 -17q0 -13 -15 -13h-36q-8 0 -16.5 1.5
t-15.5 5.5l-84 53l-85 -53q-7 -4 -15.5 -5.5t-15.5 -1.5h-37z" />
    <glyph glyph-name="idieresis" unicode="&#xef;" horiz-adv-x="264" 
d="M90 0q-10 0 -17 7t-7 17v472q0 10 7 17t17 7h83q11 0 17.5 -7t6.5 -17v-472q0 -10 -6.5 -17t-17.5 -7h-83zM189 614q-10 0 -16 6t-6 16v73q0 10 6 16.5t16 6.5h73q10 0 16.5 -6.5t6.5 -16.5v-73q0 -10 -6.5 -16t-16.5 -6h-73zM1 614q-10 0 -16 6t-6 16v73q0 10 6 16.5
t16 6.5h73q10 0 16.5 -6.5t6.5 -16.5v-73q0 -10 -6.5 -16t-16.5 -6h-73z" />
    <glyph glyph-name="eth" unicode="&#xf0;" horiz-adv-x="586" 
d="M290 -10q-78 0 -133.5 29.5t-84.5 83.5t-29 128q0 73 30 127t86 83t131 29q26 0 47 -6t38 -17q-19 52 -51 94l-105 -40q-7 -3 -12 -3q-9 0 -14.5 5t-5.5 14v22q0 13 5 19t17 10l67 26q-17 16 -36.5 32.5t-40.5 31.5q-8 7 -11.5 12t-3.5 9q0 9 6 15t15 6h88
q15 0 25.5 -3.5t17.5 -9.5l28 -24t26 -25l92 35q8 3 12 3q9 0 14.5 -5t5.5 -14v-22q0 -12 -5 -18t-17 -11l-53 -20q44 -57 70.5 -135.5t28.5 -195.5q1 -7 1 -14t-1 -14q-1 -72 -31 -125.5t-84 -82.5t-133 -29zM290 89q38 0 63 17t37.5 46.5t12.5 65.5v12v12q-1 36 -12.5 65
t-36 46.5t-64.5 17.5q-38 0 -63 -17.5t-36.5 -46.5t-12.5 -65v-13v-12q1 -36 13.5 -65t37 -46t61.5 -17z" />
    <glyph glyph-name="ntilde" unicode="&#xf1;" horiz-adv-x="624" 
d="M90 0q-10 0 -17 7t-7 17v472q0 10 7 17t17 7h82q10 0 17 -7t7 -17v-41q26 32 66.5 53.5t100.5 21.5q61 0 106 -27.5t69.5 -77.5t24.5 -120v-281q0 -10 -7 -17t-17 -7h-88q-10 0 -17 7t-7 17v275q0 58 -28.5 91t-82.5 33q-52 0 -83 -33t-31 -91v-275q0 -10 -7 -17t-17 -7
h-88zM369 590q-26 0 -42 8.5t-29.5 17.5t-29.5 9q-13 0 -18.5 -7.5t-10.5 -15t-16 -7.5h-46q-7 0 -12 5t-5 12q0 15 5.5 33.5t17.5 35.5t30.5 27.5t43.5 10.5q27 0 43 -8.5t29.5 -17.5t29.5 -9q13 0 18.5 8t10.5 15.5t16 7.5h46q8 0 12.5 -5.5t4.5 -12.5q0 -15 -5.5 -33.5
t-17.5 -35.5t-30.5 -27.5t-44.5 -10.5z" />
    <glyph glyph-name="ograve" unicode="&#xf2;" horiz-adv-x="592" 
d="M296 -10q-80 0 -134.5 28t-83 79t-32.5 119q-1 18 -1 44t1 44q4 69 33.5 119.5t84 78.5t132.5 28t132.5 -28t84 -78.5t33.5 -119.5q1 -18 1 -44t-1 -44q-4 -68 -32.5 -119t-83 -79t-134.5 -28zM296 89q53 0 82 33.5t32 98.5q1 15 1 39t-1 39q-3 65 -32 98.5t-82 33.5
t-82 -33.5t-32 -98.5q-1 -15 -1 -39t1 -39q3 -65 32 -98.5t82 -33.5zM283 595q-12 0 -19.5 3t-15.5 10l-125 102q-5 5 -5 12q0 19 19 19h100q13 0 20.5 -3.5t16.5 -14.5l82 -99q5 -5 5 -13q0 -16 -16 -16h-62z" />
    <glyph glyph-name="oacute" unicode="&#xf3;" horiz-adv-x="592" 
d="M296 -10q-80 0 -134.5 28t-83 79t-32.5 119q-1 18 -1 44t1 44q4 69 33.5 119.5t84 78.5t132.5 28t132.5 -28t84 -78.5t33.5 -119.5q1 -18 1 -44t-1 -44q-4 -68 -32.5 -119t-83 -79t-134.5 -28zM296 89q53 0 82 33.5t32 98.5q1 15 1 39t-1 39q-3 65 -32 98.5t-82 33.5
t-82 -33.5t-32 -98.5q-1 -15 -1 -39t1 -39q3 -65 32 -98.5t82 -33.5zM253 595q-16 0 -16 16q0 8 5 13l81 99q10 11 17 14.5t20 3.5h100q19 0 19 -19q0 -7 -5 -12l-124 -102q-8 -7 -15.5 -10t-20.5 -3h-61z" />
    <glyph glyph-name="ocircumflex" unicode="&#xf4;" horiz-adv-x="592" 
d="M296 -10q-80 0 -134.5 28t-83 79t-32.5 119q-1 18 -1 44t1 44q4 69 33.5 119.5t84 78.5t132.5 28t132.5 -28t84 -78.5t33.5 -119.5q1 -18 1 -44t-1 -44q-4 -68 -32.5 -119t-83 -79t-134.5 -28zM296 89q53 0 82 33.5t32 98.5q1 15 1 39t-1 39q-3 65 -32 98.5t-82 33.5
t-82 -33.5t-32 -98.5q-1 -15 -1 -39t1 -39q3 -65 32 -98.5t82 -33.5zM144 595q-15 0 -15 13q0 8 9 17l97 100q11 11 18.5 13.5t15.5 2.5h55q9 0 16.5 -2.5t17.5 -13.5l97 -100q9 -9 9 -17q0 -13 -15 -13h-36q-8 0 -16.5 1.5t-15.5 5.5l-84 53l-85 -53q-7 -4 -15.5 -5.5
t-15.5 -1.5h-37z" />
    <glyph glyph-name="otilde" unicode="&#xf5;" horiz-adv-x="592" 
d="M296 -10q-80 0 -134.5 28t-83 79t-32.5 119q-1 18 -1 44t1 44q4 69 33.5 119.5t84 78.5t132.5 28t132.5 -28t84 -78.5t33.5 -119.5q1 -18 1 -44t-1 -44q-4 -68 -32.5 -119t-83 -79t-134.5 -28zM296 89q53 0 82 33.5t32 98.5q1 15 1 39t-1 39q-3 65 -32 98.5t-82 33.5
t-82 -33.5t-32 -98.5q-1 -15 -1 -39t1 -39q3 -65 32 -98.5t82 -33.5zM351 590q-26 0 -42 8.5t-29.5 17.5t-29.5 9q-13 0 -18.5 -7.5t-10.5 -15t-16 -7.5h-46q-7 0 -12 5t-5 12q0 15 5.5 33.5t17.5 35.5t30.5 27.5t43.5 10.5q27 0 43 -8.5t29.5 -17.5t29.5 -9q13 0 18.5 8
t10.5 15.5t16 7.5h46q8 0 12.5 -5.5t4.5 -12.5q0 -15 -5.5 -33.5t-17.5 -35.5t-30.5 -27.5t-44.5 -10.5z" />
    <glyph glyph-name="odieresis" unicode="&#xf6;" horiz-adv-x="592" 
d="M296 -10q-80 0 -134.5 28t-83 79t-32.5 119q-1 18 -1 44t1 44q4 69 33.5 119.5t84 78.5t132.5 28t132.5 -28t84 -78.5t33.5 -119.5q1 -18 1 -44t-1 -44q-4 -68 -32.5 -119t-83 -79t-134.5 -28zM296 89q53 0 82 33.5t32 98.5q1 15 1 39t-1 39q-3 65 -32 98.5t-82 33.5
t-82 -33.5t-32 -98.5q-1 -15 -1 -39t1 -39q3 -65 32 -98.5t82 -33.5zM353 614q-10 0 -16 6t-6 16v73q0 10 6 16.5t16 6.5h73q10 0 16.5 -6.5t6.5 -16.5v-73q0 -10 -6.5 -16t-16.5 -6h-73zM165 614q-10 0 -16 6t-6 16v73q0 10 6 16.5t16 6.5h73q10 0 16.5 -6.5t6.5 -16.5v-73
q0 -10 -6.5 -16t-16.5 -6h-73z" />
    <glyph glyph-name="divide" unicode="&#xf7;" horiz-adv-x="546" 
d="M79 248q-10 0 -17 7t-7 17v56q0 10 7 17t17 7h387q11 0 17.5 -7t6.5 -17v-56q0 -10 -6.5 -17t-17.5 -7h-387zM233 57q-11 0 -17.5 6.5t-6.5 17.5v75q0 10 6.5 17t17.5 7h79q10 0 17 -7t7 -17v-75q0 -11 -7 -17.5t-17 -6.5h-79zM233 420q-11 0 -17.5 7t-6.5 18v74
q0 11 6.5 18t17.5 7h79q10 0 17 -7t7 -18v-74q0 -11 -7 -18t-17 -7h-79z" />
    <glyph glyph-name="oslash" unicode="&#xf8;" horiz-adv-x="592" 
d="M296 -10q-80 0 -134.5 28t-83 79t-32.5 119q-1 18 -1 44t1 44q4 69 33.5 119.5t84 78.5t132.5 28t132.5 -28t84 -78.5t33.5 -119.5q1 -18 1 -44t-1 -44q-4 -68 -32.5 -119t-83 -79t-134.5 -28zM296 89q53 0 82 33.5t32 98.5q1 15 1 39t-1 39q-3 65 -32 98.5t-82 33.5
t-82 -33.5t-32 -98.5q-1 -15 -1 -39t1 -39q3 -65 32 -98.5t82 -33.5zM69 -28q-8 0 -14 6t-6 14q0 3 0.5 6t3.5 8l420 526q3 4 8 9.5t15 5.5h26q8 0 14 -6t6 -14q0 -1 -0.5 -5t-3.5 -9l-420 -526q-3 -4 -8 -9.5t-15 -5.5h-26z" />
    <glyph glyph-name="ugrave" unicode="&#xf9;" horiz-adv-x="621" 
d="M259 -10q-61 0 -105.5 27.5t-68.5 78t-24 119.5v281q0 10 7 17t17 7h88q11 0 17.5 -7t6.5 -17v-275q0 -124 109 -124q52 0 82.5 33t30.5 91v275q0 10 7 17t17 7h88q10 0 17 -7t7 -17v-472q0 -10 -7 -17t-17 -7h-81q-11 0 -17.5 7t-6.5 17v41q-27 -35 -67 -55t-100 -20z
M295 595q-12 0 -19.5 3t-15.5 10l-125 102q-5 5 -5 12q0 19 19 19h100q13 0 20.5 -3.5t16.5 -14.5l82 -99q5 -5 5 -13q0 -16 -16 -16h-62z" />
    <glyph glyph-name="uacute" unicode="&#xfa;" horiz-adv-x="621" 
d="M259 -10q-61 0 -105.5 27.5t-68.5 78t-24 119.5v281q0 10 7 17t17 7h88q11 0 17.5 -7t6.5 -17v-275q0 -124 109 -124q52 0 82.5 33t30.5 91v275q0 10 7 17t17 7h88q10 0 17 -7t7 -17v-472q0 -10 -7 -17t-17 -7h-81q-11 0 -17.5 7t-6.5 17v41q-27 -35 -67 -55t-100 -20z
M266 595q-16 0 -16 16q0 8 5 13l81 99q10 11 17 14.5t20 3.5h100q19 0 19 -19q0 -7 -5 -12l-124 -102q-8 -7 -15.5 -10t-20.5 -3h-61z" />
    <glyph glyph-name="ucircumflex" unicode="&#xfb;" horiz-adv-x="621" 
d="M259 -10q-61 0 -105.5 27.5t-68.5 78t-24 119.5v281q0 10 7 17t17 7h88q11 0 17.5 -7t6.5 -17v-275q0 -124 109 -124q52 0 82.5 33t30.5 91v275q0 10 7 17t17 7h88q10 0 17 -7t7 -17v-472q0 -10 -7 -17t-17 -7h-81q-11 0 -17.5 7t-6.5 17v41q-27 -35 -67 -55t-100 -20z
M156 595q-15 0 -15 13q0 8 9 17l97 100q11 11 18.5 13.5t15.5 2.5h55q9 0 16.5 -2.5t17.5 -13.5l97 -100q9 -9 9 -17q0 -13 -15 -13h-36q-8 0 -16.5 1.5t-15.5 5.5l-84 53l-85 -53q-7 -4 -15.5 -5.5t-15.5 -1.5h-37z" />
    <glyph glyph-name="udieresis" unicode="&#xfc;" horiz-adv-x="621" 
d="M259 -10q-61 0 -105.5 27.5t-68.5 78t-24 119.5v281q0 10 7 17t17 7h88q11 0 17.5 -7t6.5 -17v-275q0 -124 109 -124q52 0 82.5 33t30.5 91v275q0 10 7 17t17 7h88q10 0 17 -7t7 -17v-472q0 -10 -7 -17t-17 -7h-81q-11 0 -17.5 7t-6.5 17v41q-27 -35 -67 -55t-100 -20z
M365 614q-10 0 -16 6t-6 16v73q0 10 6 16.5t16 6.5h73q10 0 16.5 -6.5t6.5 -16.5v-73q0 -10 -6.5 -16t-16.5 -6h-73zM177 614q-10 0 -16 6t-6 16v73q0 10 6 16.5t16 6.5h73q10 0 16.5 -6.5t6.5 -16.5v-73q0 -10 -6.5 -16t-16.5 -6h-73z" />
    <glyph glyph-name="yacute" unicode="&#xfd;" horiz-adv-x="574" 
d="M160 -190q-8 0 -14 6t-6 14q0 4 0.5 7.5t3.5 8.5l78 185l-192 453q-4 10 -4 14q1 9 7 15.5t15 6.5h81q12 0 18 -6t9 -13l133 -327l137 327q3 8 9 13.5t18 5.5h80q8 0 14.5 -6t6.5 -14q0 -6 -4 -16l-283 -655q-4 -8 -10 -13.5t-18 -5.5h-79zM244 595q-16 0 -16 16
q0 8 5 13l81 99q10 11 17 14.5t20 3.5h100q19 0 19 -19q0 -7 -5 -12l-124 -102q-8 -7 -15.5 -10t-20.5 -3h-61z" />
    <glyph glyph-name="thorn" unicode="&#xfe;" horiz-adv-x="614" 
d="M91 -190q-10 0 -17 7t-7 17v852q0 10 7 17t17 7h86q10 0 17 -7t7 -17v-226q24 32 60 51t93 19q53 0 92 -17t65.5 -48.5t40.5 -74.5t16 -95q1 -17 1 -35t-1 -36q-2 -50 -16 -92.5t-40.5 -74t-65.5 -49.5t-92 -18t-91 19.5t-62 51.5v-227q0 -10 -7 -17t-17 -7h-86zM317 97
q43 0 67 18.5t35 48.5t13 66q2 30 0 60q-2 36 -13 66t-35 48.5t-67 18.5q-41 0 -66 -19t-37 -48.5t-13 -60.5q-1 -18 -1 -38t1 -39q1 -30 13.5 -57.5t38 -45.5t64.5 -18z" />
    <glyph glyph-name="ydieresis" unicode="&#xff;" horiz-adv-x="574" 
d="M160 -190q-8 0 -14 6t-6 14q0 4 0.5 7.5t3.5 8.5l78 185l-192 453q-4 10 -4 14q1 9 7 15.5t15 6.5h81q12 0 18 -6t9 -13l133 -327l137 327q3 8 9 13.5t18 5.5h80q8 0 14.5 -6t6.5 -14q0 -6 -4 -16l-283 -655q-4 -8 -10 -13.5t-18 -5.5h-79zM344 614q-10 0 -16 6t-6 16v73
q0 10 6 16.5t16 6.5h73q10 0 16.5 -6.5t6.5 -16.5v-73q0 -10 -6.5 -16t-16.5 -6h-73zM156 614q-10 0 -16 6t-6 16v73q0 10 6 16.5t16 6.5h73q10 0 16.5 -6.5t6.5 -16.5v-73q0 -10 -6.5 -16t-16.5 -6h-73z" />
    <glyph glyph-name="Amacron" unicode="&#x100;" horiz-adv-x="693" 
d="M35 0q-8 0 -14.5 6t-6.5 15q0 4 2 9l241 645q3 10 11.5 17.5t23.5 7.5h109q15 0 23 -7.5t12 -17.5l241 -645q1 -5 1 -9q0 -9 -6 -15t-14 -6h-87q-14 0 -20.5 6.5t-8.5 12.5l-47 122h-297l-47 -122q-2 -6 -8.5 -12.5t-20.5 -6.5h-87zM233 256h227l-114 309zM210 750
q-10 0 -16 6t-6 16v56q0 10 6 16t16 6h272q10 0 16 -6t6 -16v-56q0 -10 -6 -16t-16 -6h-272z" />
    <glyph glyph-name="amacron" unicode="&#x101;" horiz-adv-x="571" 
d="M217 -10q-52 0 -94 20.5t-66.5 55t-24.5 77.5q0 70 57 111.5t149 55.5l137 20v21q0 42 -21 65t-72 23q-36 0 -58.5 -14.5t-33.5 -38.5q-8 -13 -23 -13h-79q-11 0 -16.5 6t-5.5 16q1 16 13.5 39t38 44.5t66.5 36.5t99 15q63 0 106.5 -15.5t69.5 -41.5t38 -61t12 -74v-314
q0 -10 -7 -17t-17 -7h-81q-11 0 -17.5 7t-6.5 17v39q-13 -18 -35 -35t-53.5 -27.5t-74.5 -10.5zM251 85q35 0 63.5 15t45 46.5t16.5 79.5v21l-100 -16q-59 -9 -88 -29t-29 -49q0 -22 13.5 -37.5t34.5 -23t44 -7.5zM157 611q-10 0 -16 6t-6 16v51q0 10 6 16t16 6h251
q10 0 16.5 -6t6.5 -16v-51q0 -10 -6.5 -16t-16.5 -6h-251z" />
    <glyph glyph-name="Abreve" unicode="&#x102;" horiz-adv-x="693" 
d="M35 0q-8 0 -14.5 6t-6.5 15q0 4 2 9l241 645q3 10 11.5 17.5t23.5 7.5h109q15 0 23 -7.5t12 -17.5l241 -645q1 -5 1 -9q0 -9 -6 -15t-14 -6h-87q-14 0 -20.5 6.5t-8.5 12.5l-47 122h-297l-47 -122q-2 -6 -8.5 -12.5t-20.5 -6.5h-87zM233 256h227l-114 309zM346 742
q-51 0 -82 18.5t-44.5 48.5t-13.5 65q0 8 5 13.5t14 5.5h49q9 0 14 -5.5t5 -13.5q0 -23 10.5 -42t42.5 -19t42.5 19t10.5 42q0 8 5 13.5t14 5.5h49q9 0 14 -5.5t5 -13.5q0 -35 -13.5 -65t-44 -48.5t-82.5 -18.5z" />
    <glyph glyph-name="abreve" unicode="&#x103;" horiz-adv-x="571" 
d="M217 -10q-52 0 -94 20.5t-66.5 55t-24.5 77.5q0 70 57 111.5t149 55.5l137 20v21q0 42 -21 65t-72 23q-36 0 -58.5 -14.5t-33.5 -38.5q-8 -13 -23 -13h-79q-11 0 -16.5 6t-5.5 16q1 16 13.5 39t38 44.5t66.5 36.5t99 15q63 0 106.5 -15.5t69.5 -41.5t38 -61t12 -74v-314
q0 -10 -7 -17t-17 -7h-81q-11 0 -17.5 7t-6.5 17v39q-13 -18 -35 -35t-53.5 -27.5t-74.5 -10.5zM251 85q35 0 63.5 15t45 46.5t16.5 79.5v21l-100 -16q-59 -9 -88 -29t-29 -49q0 -22 13.5 -37.5t34.5 -23t44 -7.5zM283 590q-48 0 -78 18.5t-43.5 48.5t-13.5 65q0 8 5 13.5
t14 5.5h47q9 0 14 -5.5t5 -13.5q0 -23 10.5 -42t39.5 -19q30 0 40 19t10 42q0 8 5 13.5t14 5.5h47q9 0 14 -5.5t5 -13.5q0 -35 -13.5 -65t-43 -48.5t-78.5 -18.5z" />
    <glyph glyph-name="Aogonek" unicode="&#x104;" horiz-adv-x="693" 
d="M626 -220q-48 0 -81 19.5t-50 53.5t-17 78q0 40 18 66.5t48 35.5q-6 2 -9 6.5t-5 8.5l-35 93h-297l-47 -122q-2 -6 -8.5 -12.5t-20.5 -6.5h-87q-8 0 -14.5 6t-6.5 15q0 4 2 9l241 645q3 10 11.5 17.5t23.5 7.5h109q15 0 23 -7.5t12 -17.5l241 -645q1 -5 1 -9q0 -9 -6 -15
t-14 -6h-30q-30 0 -46.5 -20t-16.5 -49t17 -48.5t48 -19.5h13q11 0 17.5 -6.5t6.5 -17.5v-35q0 -10 -6.5 -17t-17.5 -7h-17zM233 256h227l-114 309z" />
    <glyph glyph-name="aogonek" unicode="&#x105;" horiz-adv-x="571" 
d="M474 -220q-42 0 -72.5 18.5t-47 51.5t-16.5 77q0 22 7.5 40.5t19.5 32t23 21.5q-4 1 -6 4.5t-2 8.5v29q-13 -18 -35 -35t-53.5 -27.5t-74.5 -10.5q-52 0 -94 20.5t-66.5 55t-24.5 77.5q0 70 57 111.5t149 55.5l137 20v21q0 42 -21 65t-72 23q-29 0 -48 -9.5t-31.5 -22
l-22.5 -22.5q-3 -7 -6.5 -9.5t-8.5 -2.5h-77q-9 0 -15.5 6t-6.5 16q1 16 13.5 39t38 44.5t66.5 36.5t99 15q63 0 106.5 -15.5t69.5 -41.5t38 -61t12 -74v-314q0 -8 -5 -14.5t-14 -8.5l-8 -1q-30 -10 -44 -28t-14 -45q0 -29 13.5 -46.5t40.5 -17.5h7q10 0 17 -6.5t7 -17.5
v-35q0 -10 -7 -17t-17 -7h-11zM251 85q35 0 63.5 15t45 46.5t16.5 79.5v21l-100 -16q-59 -9 -88 -29t-29 -49q0 -22 13.5 -37.5t34.5 -23t44 -7.5z" />
    <glyph glyph-name="Cacute" unicode="&#x106;" horiz-adv-x="684" 
d="M348 -10q-93 0 -157.5 32.5t-98.5 93t-38 145.5q-1 41 -1 88t1 90q4 84 38.5 145t99 93.5t156.5 32.5q68 0 122 -18t92 -49.5t59 -73.5t22 -91q1 -9 -5.5 -15t-15.5 -6h-95q-11 0 -18 5.5t-10 18.5q-16 66 -55 90t-97 24q-67 0 -107 -37.5t-43 -123.5q-3 -82 0 -168
t43 -123.5t107 -37.5q58 0 97.5 24.5t54.5 89.5q3 14 10 19t18 5h95q9 0 15.5 -6t5.5 -15q-1 -49 -22 -91t-59 -73.5t-92 -49.5t-122 -18zM298 750q-16 0 -16 16q0 8 5 13l81 99q10 11 17 14.5t20 3.5h107q19 0 19 -19q0 -7 -5 -12l-124 -102q-8 -7 -15.5 -10t-19.5 -3h-69z
" />
    <glyph glyph-name="cacute" unicode="&#x107;" horiz-adv-x="571" 
d="M291 -10q-72 0 -126.5 27t-85 78.5t-33.5 124.5q-1 15 -1 39.5t1 40.5q3 73 33.5 124.5t85 78.5t126.5 27q64 0 109 -17.5t74 -45t43.5 -57t15.5 -53.5q1 -11 -6.5 -17.5t-17.5 -6.5h-88q-10 0 -15.5 5t-10.5 15q-15 40 -39.5 56.5t-62.5 16.5q-50 0 -79.5 -31.5
t-31.5 -99.5q-2 -38 0 -70q2 -69 31.5 -100t79.5 -31q39 0 63 16.5t39 56.5q5 10 10.5 15t15.5 5h88q10 0 17.5 -6.5t6.5 -17.5q-1 -18 -9.5 -40.5t-27 -46t-46.5 -43t-67.5 -31.5t-91.5 -12zM245 595q-16 0 -16 16q0 8 5 13l81 99q10 11 17 14.5t20 3.5h100q19 0 19 -19
q0 -7 -5 -12l-124 -102q-8 -7 -15.5 -10t-20.5 -3h-61z" />
    <glyph glyph-name="Ccircumflex" unicode="&#x108;" horiz-adv-x="684" 
d="M348 -10q-93 0 -157.5 32.5t-98.5 93t-38 145.5q-1 41 -1 88t1 90q4 84 38.5 145t99 93.5t156.5 32.5q68 0 122 -18t92 -49.5t59 -73.5t22 -91q1 -9 -5.5 -15t-15.5 -6h-95q-11 0 -18 5.5t-10 18.5q-16 66 -55 90t-97 24q-67 0 -107 -37.5t-43 -123.5q-3 -82 0 -168
t43 -123.5t107 -37.5q58 0 97.5 24.5t54.5 89.5q3 14 10 19t18 5h95q9 0 15.5 -6t5.5 -15q-1 -49 -22 -91t-59 -73.5t-92 -49.5t-122 -18zM188 750q-15 0 -15 13q0 8 9 17l98 100q10 11 17.5 13.5t16.5 2.5h58q10 0 17 -2.5t17 -13.5l98 -100q9 -9 9 -17q0 -13 -15 -13h-39
q-8 0 -16 1.5t-15 5.5l-85 53l-85 -53q-6 -4 -14.5 -5.5t-16.5 -1.5h-39z" />
    <glyph glyph-name="ccircumflex" unicode="&#x109;" horiz-adv-x="571" 
d="M291 -10q-72 0 -126.5 27t-85 78.5t-33.5 124.5q-1 15 -1 39.5t1 40.5q3 73 33.5 124.5t85 78.5t126.5 27q64 0 109 -17.5t74 -45t43.5 -57t15.5 -53.5q1 -11 -6.5 -17.5t-17.5 -6.5h-88q-10 0 -15.5 5t-10.5 15q-15 40 -39.5 56.5t-62.5 16.5q-50 0 -79.5 -31.5
t-31.5 -99.5q-2 -38 0 -70q2 -69 31.5 -100t79.5 -31q39 0 63 16.5t39 56.5q5 10 10.5 15t15.5 5h88q10 0 17.5 -6.5t6.5 -17.5q-1 -18 -9.5 -40.5t-27 -46t-46.5 -43t-67.5 -31.5t-91.5 -12zM135 595q-15 0 -15 13q0 8 9 17l97 100q11 11 18.5 13.5t15.5 2.5h55
q9 0 16.5 -2.5t17.5 -13.5l97 -100q9 -9 9 -17q0 -13 -15 -13h-36q-8 0 -16.5 1.5t-15.5 5.5l-84 53l-85 -53q-7 -4 -15.5 -5.5t-15.5 -1.5h-37z" />
    <glyph glyph-name="Cdotaccent" unicode="&#x10a;" horiz-adv-x="684" 
d="M348 -10q-93 0 -157.5 32.5t-98.5 93t-38 145.5q-1 41 -1 88t1 90q4 84 38.5 145t99 93.5t156.5 32.5q68 0 122 -18t92 -49.5t59 -73.5t22 -91q1 -9 -5.5 -15t-15.5 -6h-95q-11 0 -18 5.5t-10 18.5q-16 66 -55 90t-97 24q-67 0 -107 -37.5t-43 -123.5q-3 -82 0 -168
t43 -123.5t107 -37.5q58 0 97.5 24.5t54.5 89.5q3 14 10 19t18 5h95q9 0 15.5 -6t5.5 -15q-1 -49 -22 -91t-59 -73.5t-92 -49.5t-122 -18zM300 750q-10 0 -16 6t-6 16v84q0 10 6 16.5t16 6.5h84q10 0 16.5 -6.5t6.5 -16.5v-84q0 -10 -6.5 -16t-16.5 -6h-84z" />
    <glyph glyph-name="cdotaccent" unicode="&#x10b;" horiz-adv-x="571" 
d="M291 -10q-72 0 -126.5 27t-85 78.5t-33.5 124.5q-1 15 -1 39.5t1 40.5q3 73 33.5 124.5t85 78.5t126.5 27q64 0 109 -17.5t74 -45t43.5 -57t15.5 -53.5q1 -11 -6.5 -17.5t-17.5 -6.5h-88q-10 0 -15.5 5t-10.5 15q-15 40 -39.5 56.5t-62.5 16.5q-50 0 -79.5 -31.5
t-31.5 -99.5q-2 -38 0 -70q2 -69 31.5 -100t79.5 -31q39 0 63 16.5t39 56.5q5 10 10.5 15t15.5 5h88q10 0 17.5 -6.5t6.5 -17.5q-1 -18 -9.5 -40.5t-27 -46t-46.5 -43t-67.5 -31.5t-91.5 -12zM245 608q-10 0 -16 6t-6 16v82q0 10 6 16.5t16 6.5h82q10 0 16.5 -6.5t6.5 -16.5
v-82q0 -10 -6.5 -16t-16.5 -6h-82z" />
    <glyph glyph-name="Ccaron" unicode="&#x10c;" horiz-adv-x="684" 
d="M348 -10q-93 0 -157.5 32.5t-98.5 93t-38 145.5q-1 41 -1 88t1 90q4 84 38.5 145t99 93.5t156.5 32.5q68 0 122 -18t92 -49.5t59 -73.5t22 -91q1 -9 -5.5 -15t-15.5 -6h-95q-11 0 -18 5.5t-10 18.5q-16 66 -55 90t-97 24q-67 0 -107 -37.5t-43 -123.5q-3 -82 0 -168
t43 -123.5t107 -37.5q58 0 97.5 24.5t54.5 89.5q3 14 10 19t18 5h95q9 0 15.5 -6t5.5 -15q-1 -49 -22 -91t-59 -73.5t-92 -49.5t-122 -18zM314 750q-9 0 -16.5 3t-17.5 13l-98 100q-9 9 -9 17q0 13 15 13h39q8 0 16.5 -1.5t14.5 -5.5l85 -52l85 52q7 4 15 5.5t16 1.5h39
q15 0 15 -13q0 -8 -9 -17l-98 -100q-10 -10 -17 -13t-17 -3h-58z" />
    <glyph glyph-name="ccaron" unicode="&#x10d;" horiz-adv-x="571" 
d="M291 -10q-72 0 -126.5 27t-85 78.5t-33.5 124.5q-1 15 -1 39.5t1 40.5q3 73 33.5 124.5t85 78.5t126.5 27q64 0 109 -17.5t74 -45t43.5 -57t15.5 -53.5q1 -11 -6.5 -17.5t-17.5 -6.5h-88q-10 0 -15.5 5t-10.5 15q-15 40 -39.5 56.5t-62.5 16.5q-50 0 -79.5 -31.5
t-31.5 -99.5q-2 -38 0 -70q2 -69 31.5 -100t79.5 -31q39 0 63 16.5t39 56.5q5 10 10.5 15t15.5 5h88q10 0 17.5 -6.5t6.5 -17.5q-1 -18 -9.5 -40.5t-27 -46t-46.5 -43t-67.5 -31.5t-91.5 -12zM260 595q-8 0 -15.5 3t-18.5 13l-97 100q-9 9 -9 17q0 13 15 13h37
q7 0 15.5 -1.5t15.5 -5.5l85 -52l84 52q7 4 15.5 5.5t16.5 1.5h36q15 0 15 -13q0 -8 -9 -17l-97 -100q-10 -10 -17.5 -13t-16.5 -3h-55z" />
    <glyph glyph-name="Dcaron" unicode="&#x10e;" horiz-adv-x="703" 
d="M102 0q-10 0 -17 7t-7 17v651q0 11 7 18t17 7h244q101 0 166.5 -31t99 -92t34.5 -149q2 -44 2 -78t-2 -77q-2 -93 -34 -153.5t-96.5 -90t-164.5 -29.5h-249zM217 115h129q56 0 91 16t51.5 51.5t17.5 93.5q1 30 1.5 52.5t0 45t-1.5 51.5q-2 82 -41 121t-124 39h-124v-470z
M320 750q-9 0 -16.5 3t-17.5 13l-98 100q-9 9 -9 17q0 13 15 13h39q8 0 16.5 -1.5t14.5 -5.5l85 -52l85 52q7 4 15 5.5t16 1.5h39q15 0 15 -13q0 -8 -9 -17l-98 -100q-10 -10 -17 -13t-17 -3h-58z" />
    <glyph glyph-name="dcaron" unicode="&#x10f;" horiz-adv-x="675" 
d="M259 -10q-52 0 -91.5 17.5t-65.5 49.5t-40 75.5t-16 95.5q-1 18 -1 32.5t1 32.5q2 50 15.5 93t40 75.5t66 50.5t91.5 18q54 0 91.5 -18.5t62.5 -47.5v222q0 10 6.5 17t17.5 7h85q10 0 17 -7t7 -17v-662q0 -10 -7 -17t-17 -7h-79q-11 0 -17.5 7t-6.5 17v37
q-25 -31 -63.5 -51t-96.5 -20zM296 97q42 0 67 19t37 48.5t13 60.5q1 18 1 38.5t-1 38.5q-1 30 -14 57.5t-38 45.5t-65 18q-42 0 -66.5 -18.5t-35.5 -48.5t-13 -66q-1 -30 0 -60q2 -36 13 -66t35.5 -48.5t66.5 -18.5zM617 534q-9 0 -13.5 6t-4.5 15l19 123q2 13 9.5 22.5
t22.5 9.5h84q8 0 13 -5.5t5 -12.5t-3 -14l-46 -119q-4 -10 -11 -17.5t-22 -7.5h-53z" />
    <glyph glyph-name="Dcroat" unicode="&#x110;" horiz-adv-x="716" 
d="M116 0q-11 0 -18 7t-7 17v279h-52q-11 0 -17.5 7t-6.5 17v50q0 11 6.5 18t17.5 7h52v273q0 11 7 18t18 7h243q101 0 166.5 -31t99 -92t35.5 -149q1 -44 1 -78t-1 -77q-3 -93 -35.5 -153.5t-97 -90t-165.5 -29.5h-246zM230 115h129q56 0 90.5 16t51.5 51.5t18 93.5
q2 30 2 52.5v45t-2 51.5q-2 82 -40 121t-123 39h-126v-183h112q11 0 17.5 -7t6.5 -18v-50q0 -10 -6.5 -17t-17.5 -7h-112v-188z" />
    <glyph glyph-name="dcroat" unicode="&#x111;" horiz-adv-x="613" 
d="M259 -10q-56 0 -96 19t-65 52.5t-37.5 76.5t-14.5 90q-1 18 -1 32.5t1 32.5q2 45 14 87.5t37.5 76.5t65.5 53.5t96 19.5q54 0 92 -18.5t62 -47.5v98h-46q-11 0 -17.5 6.5t-6.5 17.5v29q0 10 6.5 17t17.5 7h46v47q0 10 7 17t17 7h86q10 0 17 -7t7 -17v-47h46q11 0 17.5 -7
t6.5 -17v-29q0 -11 -6.5 -17.5t-17.5 -6.5h-46v-538q0 -10 -7 -17t-17 -7h-80q-10 0 -17 7t-7 17v40q-23 -32 -62.5 -53t-97.5 -21zM297 97q41 0 66 19t37 48.5t13 60.5q2 18 2 38.5t-2 38.5q-1 30 -13.5 57.5t-37.5 45.5t-65 18q-42 0 -67 -18.5t-35.5 -48.5t-12.5 -66
q-2 -30 0 -60q2 -36 12.5 -66t35.5 -48.5t67 -18.5z" />
    <glyph glyph-name="Emacron" unicode="&#x112;" horiz-adv-x="622" 
d="M102 0q-10 0 -17 7t-7 17v651q0 11 7 18t17 7h440q11 0 18 -7t7 -18v-66q0 -10 -7 -17t-18 -7h-329v-177h307q11 0 18 -6.5t7 -17.5v-62q0 -11 -7 -17.5t-18 -6.5h-307v-183h337q11 0 18 -7t7 -18v-66q0 -10 -7 -17t-18 -7h-448zM175 750q-10 0 -16 6t-6 16v56q0 10 6 16
t16 6h272q10 0 16 -6t6 -16v-56q0 -10 -6 -16t-16 -6h-272z" />
    <glyph glyph-name="emacron" unicode="&#x113;" horiz-adv-x="577" 
d="M290 -10q-111 0 -176 64t-70 182q-1 10 -1 25.5t1 24.5q4 76 34.5 130.5t84.5 84t127 29.5q81 0 136 -33.5t83 -93t28 -137.5v-21q0 -10 -7 -17t-18 -7h-332v-3v-5q1 -35 13.5 -64.5t37 -47.5t58.5 -18q28 0 47 8.5t31 19.5t17 18q9 12 14.5 14.5t16.5 2.5h86
q10 0 16.5 -6t5.5 -15q-1 -16 -16.5 -39t-44.5 -45t-72.5 -36.5t-99.5 -14.5zM180 305h221v3q0 39 -13 68.5t-38 46t-60 16.5t-60 -16.5t-37.5 -46t-12.5 -68.5v-3zM163 611q-10 0 -16 6t-6 16v51q0 10 6 16t16 6h251q10 0 16.5 -6t6.5 -16v-51q0 -10 -6.5 -16t-16.5 -6
h-251z" />
    <glyph glyph-name="Ebreve" unicode="&#x114;" horiz-adv-x="622" 
d="M102 0q-10 0 -17 7t-7 17v651q0 11 7 18t17 7h440q11 0 18 -7t7 -18v-66q0 -10 -7 -17t-18 -7h-329v-177h307q11 0 18 -6.5t7 -17.5v-62q0 -11 -7 -17.5t-18 -6.5h-307v-183h337q11 0 18 -7t7 -18v-66q0 -10 -7 -17t-18 -7h-448zM311 742q-51 0 -82 18.5t-44.5 48.5
t-13.5 65q0 8 5 13.5t14 5.5h49q9 0 14 -5.5t5 -13.5q0 -23 10.5 -42t42.5 -19t42.5 19t10.5 42q0 8 5 13.5t14 5.5h49q9 0 14 -5.5t5 -13.5q0 -35 -13.5 -65t-44 -48.5t-82.5 -18.5z" />
    <glyph glyph-name="ebreve" unicode="&#x115;" horiz-adv-x="577" 
d="M290 -10q-111 0 -176 64t-70 182q-1 10 -1 25.5t1 24.5q4 76 34.5 130.5t84.5 84t127 29.5q81 0 136 -33.5t83 -93t28 -137.5v-21q0 -10 -7 -17t-18 -7h-332v-3v-5q1 -35 13.5 -64.5t37 -47.5t58.5 -18q28 0 47 8.5t31 19.5t17 18q9 12 14.5 14.5t16.5 2.5h86
q10 0 16.5 -6t5.5 -15q-1 -16 -16.5 -39t-44.5 -45t-72.5 -36.5t-99.5 -14.5zM180 305h221v3q0 39 -13 68.5t-38 46t-60 16.5t-60 -16.5t-37.5 -46t-12.5 -68.5v-3zM289 590q-48 0 -78 18.5t-43.5 48.5t-13.5 65q0 8 5 13.5t14 5.5h47q9 0 14 -5.5t5 -13.5q0 -23 10.5 -42
t39.5 -19q30 0 40 19t10 42q0 8 5 13.5t14 5.5h47q9 0 14 -5.5t5 -13.5q0 -35 -13.5 -65t-43 -48.5t-78.5 -18.5z" />
    <glyph glyph-name="Edotaccent" unicode="&#x116;" horiz-adv-x="622" 
d="M102 0q-10 0 -17 7t-7 17v651q0 11 7 18t17 7h440q11 0 18 -7t7 -18v-66q0 -10 -7 -17t-18 -7h-329v-177h307q11 0 18 -6.5t7 -17.5v-62q0 -11 -7 -17.5t-18 -6.5h-307v-183h337q11 0 18 -7t7 -18v-66q0 -10 -7 -17t-18 -7h-448zM269 750q-10 0 -16 6t-6 16v84
q0 10 6 16.5t16 6.5h84q10 0 16.5 -6.5t6.5 -16.5v-84q0 -10 -6.5 -16t-16.5 -6h-84z" />
    <glyph glyph-name="edotaccent" unicode="&#x117;" horiz-adv-x="577" 
d="M290 -10q-111 0 -176 64t-70 182q-1 10 -1 25.5t1 24.5q4 76 34.5 130.5t84.5 84t127 29.5q81 0 136 -33.5t83 -93t28 -137.5v-21q0 -10 -7 -17t-18 -7h-332v-3v-5q1 -35 13.5 -64.5t37 -47.5t58.5 -18q28 0 47 8.5t31 19.5t17 18q9 12 14.5 14.5t16.5 2.5h86
q10 0 16.5 -6t5.5 -15q-1 -16 -16.5 -39t-44.5 -45t-72.5 -36.5t-99.5 -14.5zM180 305h221v3q0 39 -13 68.5t-38 46t-60 16.5t-60 -16.5t-37.5 -46t-12.5 -68.5v-3zM248 608q-10 0 -16 6t-6 16v82q0 10 6 16.5t16 6.5h82q10 0 16.5 -6.5t6.5 -16.5v-82q0 -10 -6.5 -16
t-16.5 -6h-82z" />
    <glyph glyph-name="Eogonek" unicode="&#x118;" horiz-adv-x="622" 
d="M534 -220q-48 0 -81.5 19.5t-50 53.5t-16.5 78q0 20 3.5 37.5t10.5 31.5h-298q-10 0 -17 7t-7 17v651q0 11 7 18t17 7h440q11 0 18 -7t7 -18v-66q0 -10 -7 -17t-18 -7h-329v-177h307q11 0 18 -6.5t7 -17.5v-62q0 -11 -7 -17.5t-18 -6.5h-307v-183h337q11 0 18 -7t7 -18
v-66q0 -10 -7 -17t-18 -7h-16q-30 -1 -46 -20.5t-16 -48.5t17 -48.5t49 -19.5h13q10 0 17 -6.5t7 -17.5v-35q0 -10 -7 -17t-17 -7h-17z" />
    <glyph glyph-name="eogonek" unicode="&#x119;" horiz-adv-x="578" 
d="M343 -220q-48 0 -81.5 19.5t-50 53.5t-16.5 78q0 41 14 69q-75 21 -118 81.5t-46 154.5q-1 10 -1 25t1 24q3 76 33.5 131t84.5 84.5t127 29.5q82 0 136.5 -33.5t82.5 -93t28 -137.5v-21q0 -10 -7 -17t-17 -7h-333v-8q2 -35 14.5 -64.5t37 -47.5t58.5 -18q28 0 47 8.5
t30.5 19.5t16.5 18q9 12 14.5 14.5t17.5 2.5h86q9 0 15.5 -6t5.5 -15q-1 -19 -22 -46t-60 -51t-97 -34q-30 -5 -46 -20t-16 -43q0 -29 17 -48.5t48 -19.5h13q10 0 17 -6.5t7 -17.5v-35q0 -10 -7 -17t-17 -7h-17zM180 305h221v3q0 39 -13 68.5t-38 46t-60 16.5t-60 -16.5
t-37.5 -46t-12.5 -68.5v-3z" />
    <glyph glyph-name="Ecaron" unicode="&#x11a;" horiz-adv-x="622" 
d="M102 0q-10 0 -17 7t-7 17v651q0 11 7 18t17 7h440q11 0 18 -7t7 -18v-66q0 -10 -7 -17t-18 -7h-329v-177h307q11 0 18 -6.5t7 -17.5v-62q0 -11 -7 -17.5t-18 -6.5h-307v-183h337q11 0 18 -7t7 -18v-66q0 -10 -7 -17t-18 -7h-448zM282 750q-9 0 -16.5 3t-17.5 13l-98 100
q-9 9 -9 17q0 13 15 13h39q8 0 16.5 -1.5t14.5 -5.5l85 -52l85 52q7 4 15 5.5t16 1.5h39q15 0 15 -13q0 -8 -9 -17l-98 -100q-10 -10 -17 -13t-17 -3h-58z" />
    <glyph glyph-name="ecaron" unicode="&#x11b;" horiz-adv-x="577" 
d="M290 -10q-111 0 -176 64t-70 182q-1 10 -1 25.5t1 24.5q4 76 34.5 130.5t84.5 84t127 29.5q81 0 136 -33.5t83 -93t28 -137.5v-21q0 -10 -7 -17t-18 -7h-332v-3v-5q1 -35 13.5 -64.5t37 -47.5t58.5 -18q28 0 47 8.5t31 19.5t17 18q9 12 14.5 14.5t16.5 2.5h86
q10 0 16.5 -6t5.5 -15q-1 -16 -16.5 -39t-44.5 -45t-72.5 -36.5t-99.5 -14.5zM180 305h221v3q0 39 -13 68.5t-38 46t-60 16.5t-60 -16.5t-37.5 -46t-12.5 -68.5v-3zM262 595q-8 0 -15.5 3t-18.5 13l-97 100q-9 9 -9 17q0 13 15 13h37q7 0 15.5 -1.5t15.5 -5.5l85 -52l84 52
q7 4 15.5 5.5t16.5 1.5h36q15 0 15 -13q0 -8 -9 -17l-97 -100q-10 -10 -17.5 -13t-16.5 -3h-55z" />
    <glyph glyph-name="Gcircumflex" unicode="&#x11c;" horiz-adv-x="700" 
d="M350 -10q-92 0 -156.5 32t-100 92.5t-38.5 144.5q-1 43 -1 92.5t1 93.5q3 83 38.5 142t101 91t155.5 32q73 0 128 -19.5t91.5 -50t55 -65.5t19.5 -65q1 -9 -5 -15t-16 -6h-103q-10 0 -15 4t-9 12q-8 21 -25 41.5t-46 34.5t-75 14q-68 0 -108.5 -36t-43.5 -119
q-3 -87 0 -176q3 -85 44.5 -122t109.5 -37q45 0 80.5 16t56 50t20.5 87v31h-122q-10 0 -17 7t-7 18v53q0 11 7 18t17 7h239q11 0 17.5 -7t6.5 -18v-105q0 -84 -36.5 -145t-104 -94t-159.5 -33zM199 750q-15 0 -15 13q0 8 9 17l98 100q10 11 17.5 13.5t16.5 2.5h58
q10 0 17 -2.5t17 -13.5l98 -100q9 -9 9 -17q0 -13 -15 -13h-39q-8 0 -16 1.5t-15 5.5l-85 53l-85 -53q-6 -4 -14.5 -5.5t-16.5 -1.5h-39z" />
    <glyph glyph-name="gcircumflex" unicode="&#x11d;" horiz-adv-x="616" 
d="M301 -220q-73 0 -120 19t-74 46t-38.5 53.5t-12.5 41.5q-1 10 6.5 17.5t17.5 7.5h87q10 0 16 -4.5t10 -16.5q6 -13 16 -28t30.5 -25.5t56.5 -10.5q38 0 64 11t39.5 37t13.5 72v68q-24 -29 -61.5 -47t-92.5 -18q-53 0 -92.5 17.5t-65.5 49t-39.5 74.5t-15.5 95q-1 27 0 54
q2 50 15.5 93t39.5 75.5t65.5 50.5t92.5 18q57 0 96 -21.5t64 -53.5v40q0 11 7 18t17 7h81q10 0 17 -7t7 -18l1 -482q0 -72 -27 -124t-81.5 -80.5t-139.5 -28.5zM296 109q41 0 66 18t37 47t14 59q1 13 1 33t-1 32q-2 31 -14 59.5t-37 47t-66 18.5t-66 -18.5t-35.5 -48.5
t-12.5 -66q-2 -24 0 -49q2 -35 12.5 -65.5t35.5 -48.5t66 -18zM145 595q-15 0 -15 13q0 8 9 17l97 100q11 11 18.5 13.5t15.5 2.5h55q9 0 16.5 -2.5t17.5 -13.5l97 -100q9 -9 9 -17q0 -13 -15 -13h-36q-8 0 -16.5 1.5t-15.5 5.5l-84 53l-85 -53q-7 -4 -15.5 -5.5t-15.5 -1.5
h-37z" />
    <glyph glyph-name="Gbreve" unicode="&#x11e;" horiz-adv-x="700" 
d="M350 -10q-92 0 -156.5 32t-100 92.5t-38.5 144.5q-1 43 -1 92.5t1 93.5q3 83 38.5 142t101 91t155.5 32q73 0 128 -19.5t91.5 -50t55 -65.5t19.5 -65q1 -9 -5 -15t-16 -6h-103q-10 0 -15 4t-9 12q-8 21 -25 41.5t-46 34.5t-75 14q-68 0 -108.5 -36t-43.5 -119
q-3 -87 0 -176q3 -85 44.5 -122t109.5 -37q45 0 80.5 16t56 50t20.5 87v31h-122q-10 0 -17 7t-7 18v53q0 11 7 18t17 7h239q11 0 17.5 -7t6.5 -18v-105q0 -84 -36.5 -145t-104 -94t-159.5 -33zM354 742q-51 0 -82 18.5t-44.5 48.5t-13.5 65q0 8 5 13.5t14 5.5h49
q9 0 14 -5.5t5 -13.5q0 -23 10.5 -42t42.5 -19t42.5 19t10.5 42q0 8 5 13.5t14 5.5h49q9 0 14 -5.5t5 -13.5q0 -35 -13.5 -65t-44 -48.5t-82.5 -18.5z" />
    <glyph glyph-name="gbreve" unicode="&#x11f;" horiz-adv-x="616" 
d="M301 -220q-73 0 -120 19t-74 46t-38.5 53.5t-12.5 41.5q-1 10 6.5 17.5t17.5 7.5h87q10 0 16 -4.5t10 -16.5q6 -13 16 -28t30.5 -25.5t56.5 -10.5q38 0 64 11t39.5 37t13.5 72v68q-24 -29 -61.5 -47t-92.5 -18q-53 0 -92.5 17.5t-65.5 49t-39.5 74.5t-15.5 95q-1 27 0 54
q2 50 15.5 93t39.5 75.5t65.5 50.5t92.5 18q57 0 96 -21.5t64 -53.5v40q0 11 7 18t17 7h81q10 0 17 -7t7 -18l1 -482q0 -72 -27 -124t-81.5 -80.5t-139.5 -28.5zM296 109q41 0 66 18t37 47t14 59q1 13 1 33t-1 32q-2 31 -14 59.5t-37 47t-66 18.5t-66 -18.5t-35.5 -48.5
t-12.5 -66q-2 -24 0 -49q2 -35 12.5 -65.5t35.5 -48.5t66 -18zM298 590q-48 0 -78 18.5t-43.5 48.5t-13.5 65q0 8 5 13.5t14 5.5h47q9 0 14 -5.5t5 -13.5q0 -23 10.5 -42t39.5 -19q30 0 40 19t10 42q0 8 5 13.5t14 5.5h47q9 0 14 -5.5t5 -13.5q0 -35 -13.5 -65t-43 -48.5
t-78.5 -18.5z" />
    <glyph glyph-name="Gdotaccent" unicode="&#x120;" horiz-adv-x="700" 
d="M350 -10q-92 0 -156.5 32t-100 92.5t-38.5 144.5q-1 43 -1 92.5t1 93.5q3 83 38.5 142t101 91t155.5 32q73 0 128 -19.5t91.5 -50t55 -65.5t19.5 -65q1 -9 -5 -15t-16 -6h-103q-10 0 -15 4t-9 12q-8 21 -25 41.5t-46 34.5t-75 14q-68 0 -108.5 -36t-43.5 -119
q-3 -87 0 -176q3 -85 44.5 -122t109.5 -37q45 0 80.5 16t56 50t20.5 87v31h-122q-10 0 -17 7t-7 18v53q0 11 7 18t17 7h239q11 0 17.5 -7t6.5 -18v-105q0 -84 -36.5 -145t-104 -94t-159.5 -33zM312 750q-10 0 -16 6t-6 16v84q0 10 6 16.5t16 6.5h84q10 0 16.5 -6.5
t6.5 -16.5v-84q0 -10 -6.5 -16t-16.5 -6h-84z" />
    <glyph glyph-name="gdotaccent" unicode="&#x121;" horiz-adv-x="616" 
d="M301 -220q-73 0 -120 19t-74 46t-38.5 53.5t-12.5 41.5q-1 10 6.5 17.5t17.5 7.5h87q10 0 16 -4.5t10 -16.5q6 -13 16 -28t30.5 -25.5t56.5 -10.5q38 0 64 11t39.5 37t13.5 72v68q-24 -29 -61.5 -47t-92.5 -18q-53 0 -92.5 17.5t-65.5 49t-39.5 74.5t-15.5 95q-1 27 0 54
q2 50 15.5 93t39.5 75.5t65.5 50.5t92.5 18q57 0 96 -21.5t64 -53.5v40q0 11 7 18t17 7h81q10 0 17 -7t7 -18l1 -482q0 -72 -27 -124t-81.5 -80.5t-139.5 -28.5zM296 109q41 0 66 18t37 47t14 59q1 13 1 33t-1 32q-2 31 -14 59.5t-37 47t-66 18.5t-66 -18.5t-35.5 -48.5
t-12.5 -66q-2 -24 0 -49q2 -35 12.5 -65.5t35.5 -48.5t66 -18zM256 608q-10 0 -16 6t-6 16v82q0 10 6 16.5t16 6.5h82q10 0 16.5 -6.5t6.5 -16.5v-82q0 -10 -6.5 -16t-16.5 -6h-82z" />
    <glyph glyph-name="uni0122" unicode="&#x122;" horiz-adv-x="700" 
d="M350 -10q-92 0 -156.5 32t-100 92.5t-38.5 144.5q-1 43 -1 92.5t1 93.5q3 83 38.5 142t101 91t155.5 32q73 0 128 -19.5t91.5 -50t55 -65.5t19.5 -65q1 -9 -5 -15t-16 -6h-103q-10 0 -15 4t-9 12q-8 21 -25 41.5t-46 34.5t-75 14q-68 0 -108.5 -36t-43.5 -119
q-3 -87 0 -176q3 -85 44.5 -122t109.5 -37q45 0 80.5 16t56 50t20.5 87v31h-122q-10 0 -17 7t-7 18v53q0 11 7 18t17 7h239q11 0 17.5 -7t6.5 -18v-105q0 -84 -36.5 -145t-104 -94t-159.5 -33zM284 -226q-9 0 -13.5 6t-4.5 15l19 123q2 13 9.5 22.5t22.5 9.5h88q8 0 13 -5.5
t5 -12.5t-2 -14l-47 -119q-4 -10 -11 -17.5t-21 -7.5h-58z" />
    <glyph glyph-name="uni0123" unicode="&#x123;" horiz-adv-x="616" 
d="M301 -220q-73 0 -120 19t-74 46t-38.5 53.5t-12.5 41.5q-1 10 6.5 17.5t17.5 7.5h87q10 0 16 -4.5t10 -16.5q6 -13 16 -28t30.5 -25.5t56.5 -10.5q38 0 64 11t39.5 37t13.5 72v68q-24 -29 -61.5 -47t-92.5 -18q-53 0 -92.5 17.5t-65.5 49t-39.5 74.5t-15.5 95q-1 27 0 54
q2 50 15.5 93t39.5 75.5t65.5 50.5t92.5 18q57 0 96 -21.5t64 -53.5v40q0 11 7 18t17 7h81q10 0 17 -7t7 -18l1 -482q0 -72 -27 -124t-81.5 -80.5t-139.5 -28.5zM296 109q41 0 66 18t37 47t14 59q1 13 1 33t-1 32q-2 31 -14 59.5t-37 47t-66 18.5t-66 -18.5t-35.5 -48.5
t-12.5 -66q-2 -24 0 -49q2 -35 12.5 -65.5t35.5 -48.5t66 -18zM255 595q-8 0 -13 5.5t-5 12.5t3 14l46 119q5 10 12 17.5t21 7.5h53q9 0 14 -6t4 -15l-19 -123q-1 -13 -9 -22.5t-23 -9.5h-84z" />
    <glyph glyph-name="Hcircumflex" unicode="&#x124;" horiz-adv-x="729" 
d="M102 0q-10 0 -17 6.5t-7 17.5v651q0 11 7 18t17 7h91q11 0 17.5 -7t6.5 -18v-258h295v258q0 11 7 18t17 7h90q11 0 18 -7t7 -18v-651q0 -10 -7 -17t-18 -7h-90q-10 0 -17 7t-7 17v268h-295v-268q0 -10 -6.5 -17t-17.5 -7h-91zM210 750q-15 0 -15 13q0 8 9 17l98 100
q10 11 17.5 13.5t16.5 2.5h58q10 0 17 -2.5t17 -13.5l98 -100q9 -9 9 -17q0 -13 -15 -13h-39q-8 0 -16 1.5t-15 5.5l-85 53l-85 -53q-6 -4 -14.5 -5.5t-16.5 -1.5h-39z" />
    <glyph glyph-name="hcircumflex" unicode="&#x125;" horiz-adv-x="629" 
d="M91 0q-10 0 -17 7t-7 17v662q0 10 7 17t17 7h89q11 0 17.5 -7t6.5 -17v-228q27 32 66 52t96 20q61 0 106.5 -27.5t70.5 -77.5t25 -120v-281q0 -10 -7 -17t-17 -7h-90q-10 0 -17 7t-7 17v275q0 58 -28.5 91t-82.5 33q-52 0 -83.5 -33t-31.5 -91v-275q0 -10 -6.5 -17
t-17.5 -7h-89zM164 750q-15 0 -15 13q0 8 9 17l97 100q11 11 18.5 13.5t15.5 2.5h55q9 0 16.5 -2.5t17.5 -13.5l97 -100q9 -9 9 -17q0 -13 -15 -13h-36q-8 0 -16.5 1.5t-15.5 5.5l-84 53l-85 -53q-7 -4 -15.5 -5.5t-15.5 -1.5h-37z" />
    <glyph glyph-name="Hbar" unicode="&#x126;" horiz-adv-x="729" 
d="M61 516q-10 0 -17 7t-7 17v36q0 11 7 17.5t17 6.5h612q11 0 17.5 -6.5t6.5 -17.5v-36q0 -10 -6.5 -17t-17.5 -7h-612zM102 0q-10 0 -17 6.5t-7 17.5v651q0 11 7 18t17 7h91q11 0 17.5 -7t6.5 -18v-258h295v258q0 11 7 18t17 7h90q11 0 18 -7t7 -18v-651q0 -10 -7 -17
t-18 -7h-90q-10 0 -17 7t-7 17v268h-295v-268q0 -10 -6.5 -17t-17.5 -7h-91z" />
    <glyph glyph-name="hbar" unicode="&#x127;" horiz-adv-x="629" 
d="M22 558q-11 0 -17.5 6.5t-6.5 17.5v29q0 10 6.5 17t17.5 7h226q11 0 17.5 -7t6.5 -17v-29q0 -11 -6.5 -17.5t-17.5 -6.5h-226zM91 0q-10 0 -17 7t-7 17v662q0 10 7 17t17 7h89q11 0 17.5 -7t6.5 -17v-228q27 32 66 52t96 20q61 0 106.5 -27.5t70.5 -77.5t25 -120v-281
q0 -10 -7 -17t-17 -7h-90q-10 0 -17 7t-7 17v275q0 58 -28.5 91t-82.5 33q-52 0 -83.5 -33t-31.5 -91v-275q0 -10 -6.5 -17t-17.5 -7h-89z" />
    <glyph glyph-name="Itilde" unicode="&#x128;" horiz-adv-x="299" 
d="M102 0q-10 0 -17 7t-7 17v652q0 10 7 17t17 7h94q11 0 17.5 -7t6.5 -17v-652q0 -10 -6.5 -17t-17.5 -7h-94zM206 745q-26 0 -43.5 8.5t-31.5 17.5t-30 9q-13 0 -18.5 -7.5t-10.5 -15t-16 -7.5h-46q-7 0 -12 5t-5 12q0 15 5.5 34t18 36.5t31.5 28.5t44 11q27 0 44.5 -8.5
t31.5 -17.5t30 -9q13 0 18.5 8t10.5 15.5t16 7.5h46q8 0 12.5 -5.5t4.5 -12.5q0 -15 -6 -34t-18.5 -36t-31 -28.5t-44.5 -11.5z" />
    <glyph glyph-name="itilde" unicode="&#x129;" horiz-adv-x="264" 
d="M90 0q-10 0 -17 7t-7 17v472q0 10 7 17t17 7h83q11 0 17.5 -7t6.5 -17v-472q0 -10 -6.5 -17t-17.5 -7h-83zM187 590q-26 0 -42 8.5t-29.5 17.5t-29.5 9q-13 0 -18.5 -7.5t-10.5 -15t-16 -7.5h-46q-7 0 -12 5t-5 12q0 15 5.5 33.5t17.5 35.5t30.5 27.5t43.5 10.5
q27 0 43 -8.5t29.5 -17.5t29.5 -9q13 0 18.5 8t10.5 15.5t16 7.5h46q8 0 12.5 -5.5t4.5 -12.5q0 -15 -5.5 -33.5t-17.5 -35.5t-30.5 -27.5t-44.5 -10.5z" />
    <glyph glyph-name="Imacron" unicode="&#x12a;" horiz-adv-x="299" 
d="M102 0q-10 0 -17 7t-7 17v652q0 10 7 17t17 7h94q11 0 17.5 -7t6.5 -17v-652q0 -10 -6.5 -17t-17.5 -7h-94zM13 750q-10 0 -16 6t-6 16v56q0 10 6 16t16 6h272q10 0 16 -6t6 -16v-56q0 -10 -6 -16t-16 -6h-272z" />
    <glyph glyph-name="imacron" unicode="&#x12b;" horiz-adv-x="264" 
d="M90 0q-10 0 -17 7t-7 17v472q0 10 7 17t17 7h83q11 0 17.5 -7t6.5 -17v-472q0 -10 -6.5 -17t-17.5 -7h-83zM6 611q-10 0 -16 6t-6 16v51q0 10 6 16t16 6h251q10 0 16.5 -6t6.5 -16v-51q0 -10 -6.5 -16t-16.5 -6h-251z" />
    <glyph glyph-name="Ibreve" unicode="&#x12c;" horiz-adv-x="299" 
d="M102 0q-10 0 -17 7t-7 17v652q0 10 7 17t17 7h94q11 0 17.5 -7t6.5 -17v-652q0 -10 -6.5 -17t-17.5 -7h-94zM150 742q-51 0 -82 18.5t-44.5 48.5t-13.5 65q0 8 5 13.5t14 5.5h49q9 0 14 -5.5t5 -13.5q0 -23 10.5 -42t42.5 -19t42.5 19t10.5 42q0 8 5 13.5t14 5.5h49
q9 0 14 -5.5t5 -13.5q0 -35 -13.5 -65t-44 -48.5t-82.5 -18.5z" />
    <glyph glyph-name="ibreve" unicode="&#x12d;" horiz-adv-x="264" 
d="M90 0q-10 0 -17 7t-7 17v472q0 10 7 17t17 7h83q11 0 17.5 -7t6.5 -17v-472q0 -10 -6.5 -17t-17.5 -7h-83zM132 590q-48 0 -78 18.5t-43.5 48.5t-13.5 65q0 8 5 13.5t14 5.5h47q9 0 14 -5.5t5 -13.5q0 -23 10.5 -42t39.5 -19q30 0 40 19t10 42q0 8 5 13.5t14 5.5h47
q9 0 14 -5.5t5 -13.5q0 -35 -13.5 -65t-43 -48.5t-78.5 -18.5z" />
    <glyph glyph-name="Iogonek" unicode="&#x12e;" horiz-adv-x="309" 
d="M190 -221q-48 0 -81.5 19.5t-50 54t-16.5 78.5q0 40 18 66.5t49 35.5l-9 5q-5 1 -8 6t-3 11v621q0 10 6.5 17t17.5 7h94q10 0 17 -7t7 -17v-652q0 -10 -7 -17t-17 -7h-13q-31 0 -48 -20t-17 -49t17 -48.5t48 -19.5h13q10 0 17 -7t7 -17v-36q0 -10 -7 -17t-17 -7h-17z" />
    <glyph glyph-name="iogonek" unicode="&#x12f;" horiz-adv-x="276" 
d="M175 -209q-70 0 -107.5 40t-37.5 104q0 38 17 63t46 34l-3 2q-5 2 -8 6t-3 9v447q0 10 6.5 17t17.5 7h83q10 0 17 -7t7 -17v-472q0 -10 -7 -17t-17 -7h-7q-32 0 -49 -18t-17 -47t17 -46.5t49 -17.5h13q10 0 17 -7t7 -17v-32q0 -10 -7 -17t-17 -7h-17zM98 606q-10 0 -17 7
t-7 17v72q0 10 7 17t17 7h92q10 0 17 -7t7 -17v-72q0 -10 -7 -17t-17 -7h-92z" />
    <glyph glyph-name="Idotaccent" unicode="&#x130;" horiz-adv-x="299" 
d="M102 0q-10 0 -17 7t-7 17v652q0 10 7 17t17 7h94q11 0 17.5 -7t6.5 -17v-652q0 -10 -6.5 -17t-17.5 -7h-94zM107 750q-10 0 -16 6t-6 16v84q0 10 6 16.5t16 6.5h84q10 0 16.5 -6.5t6.5 -16.5v-84q0 -10 -6.5 -16t-16.5 -6h-84z" />
    <glyph glyph-name="dotlessi" unicode="&#x131;" horiz-adv-x="264" 
d="M90 0q-10 0 -17 7t-7 17v472q0 10 7 17t17 7h83q11 0 17.5 -7t6.5 -17v-472q0 -10 -6.5 -17t-17.5 -7h-83z" />
    <glyph glyph-name="IJ" unicode="&#x132;" horiz-adv-x="678" 
d="M324 -10q-10 0 -17 7t-7 17v74q0 11 7 18t17 7q70 0 104.5 42.5t34.5 117.5v403q0 10 6.5 17t17.5 7h94q11 0 17.5 -7t6.5 -18v-419q0 -89 -33 -148.5t-95.5 -88.5t-152.5 -29zM102 0q-10 0 -17 7t-7 17v652q0 10 7 17t17 7h94q11 0 17.5 -7t6.5 -17v-652q0 -10 -6.5 -17
t-17.5 -7h-94z" />
    <glyph glyph-name="ij" unicode="&#x133;" horiz-adv-x="560" 
d="M90 0q-10 0 -17 7t-7 17v472q0 10 7 17t17 7h83q11 0 17.5 -7t6.5 -17v-472q0 -10 -6.5 -17t-17.5 -7h-83zM86 606q-10 0 -17 7t-7 17v72q0 10 7 17t17 7h91q11 0 18 -7t7 -17v-72q0 -10 -7 -17t-18 -7h-91zM262 -190q-10 0 -17 7t-7 17v58q0 10 7 17t17 7h26q31 0 46 11
t20 30.5t5 43.5v495q0 10 7 17t17 7h87q10 0 17 -7t7 -17v-497q0 -59 -21.5 -101t-64 -65t-108.5 -23h-38zM379 606q-11 0 -17.5 7t-6.5 17v72q0 10 6.5 17t17.5 7h94q11 0 18 -7t7 -17v-72q0 -10 -7 -17t-18 -7h-94z" />
    <glyph glyph-name="Jcircumflex" unicode="&#x134;" horiz-adv-x="652" 
d="M304 -10q-54 0 -102.5 13.5t-86.5 41.5t-60.5 69t-23.5 97q0 9 6 15.5t15 6.5h95q13 0 19.5 -7t10.5 -19q5 -36 23 -58.5t45.5 -33t61.5 -10.5q63 0 96.5 41t33.5 114v322h-339q-11 0 -17.5 7t-6.5 17v70q0 10 6.5 17t17.5 7h457q11 0 18 -7t7 -18v-419q0 -83 -34.5 -143
t-96 -91.5t-145.5 -31.5zM176 750q-15 0 -15 13q0 8 9 17l98 100q10 11 17.5 13.5t16.5 2.5h58q10 0 17 -2.5t17 -13.5l98 -100q9 -9 9 -17q0 -13 -15 -13h-39q-8 0 -16 1.5t-15 5.5l-85 53l-85 -53q-6 -4 -14.5 -5.5t-16.5 -1.5h-39z" />
    <glyph glyph-name="jcircumflex" unicode="&#x135;" horiz-adv-x="356" 
d="M39 -190q-10 0 -17 7t-7 17v72q0 10 7 17t17 7h43q31 0 46 11t20 30.5t5 43.5v396h-107q-10 0 -17 7t-7 17v61q0 10 7 17t17 7h219q10 0 17 -7t7 -17v-481q0 -61 -21 -107t-64 -72t-109 -26h-56zM14 595q-15 0 -15 13q0 8 9 17l97 100q11 11 18.5 13.5t15.5 2.5h55
q9 0 16.5 -2.5t17.5 -13.5l97 -100q9 -9 9 -17q0 -13 -15 -13h-36q-8 0 -16.5 1.5t-15.5 5.5l-84 53l-85 -53q-7 -4 -15.5 -5.5t-15.5 -1.5h-37z" />
    <glyph glyph-name="uni0136" unicode="&#x136;" horiz-adv-x="632" 
d="M102 0q-10 0 -17 7t-7 17v651q0 11 7 18t17 7h88q11 0 18 -7t7 -18v-234l226 241q4 5 13.5 11.5t25.5 6.5h99q8 0 14.5 -6t6.5 -15q0 -7 -4 -12l-275 -302l294 -331q5 -6 5 -13q0 -9 -6.5 -15t-14.5 -6h-103q-17 0 -26.5 7.5t-12.5 10.5l-242 265v-259q0 -10 -7 -17
t-18 -7h-88zM251 -226q-9 0 -13.5 6t-4.5 15l19 123q2 13 9.5 22.5t22.5 9.5h88q8 0 13 -5.5t5 -12.5t-2 -14l-47 -119q-4 -10 -11 -17.5t-21 -7.5h-58z" />
    <glyph glyph-name="uni0137" unicode="&#x137;" horiz-adv-x="550" 
d="M91 0q-10 0 -17 7t-7 17v662q0 10 7 17t17 7h81q11 0 17.5 -7t6.5 -17v-342l168 159q10 8 16.5 12.5t20.5 4.5h93q10 0 16 -6t6 -16q0 -4 -2 -9t-8 -9l-206 -193l231 -248q10 -10 10 -17q0 -10 -6.5 -16t-15.5 -6h-95q-15 0 -21.5 4.5t-15.5 12.5l-191 201v-194
q0 -10 -6.5 -17t-17.5 -7h-81zM204 -226q-9 0 -13.5 6t-4.5 15l19 123q2 13 9.5 22.5t22.5 9.5h84q8 0 13 -5.5t5 -12.5t-3 -14l-46 -119q-4 -10 -11 -17.5t-22 -7.5h-53z" />
    <glyph glyph-name="kgreenlandic" unicode="&#x138;" horiz-adv-x="551" 
d="M90 0q-10 0 -17 7t-7 17v472q0 10 7 17t17 7h82q10 0 17 -7t7 -17v-179l177 186q9 8 15.5 12.5t20.5 4.5h88q9 0 15 -6t6 -16q0 -4 -2 -9t-7 -9l-206 -218l228 -223q9 -9 9 -17q0 -10 -6 -16t-16 -6h-96q-15 0 -22 5t-15 12l-189 185v-178q0 -10 -7 -17t-17 -7h-82z" />
    <glyph glyph-name="Lacute" unicode="&#x139;" horiz-adv-x="580" 
d="M102 0q-10 0 -17 7t-7 17v652q0 10 7 17t17 7h93q10 0 17 -7t7 -17v-557h317q11 0 18 -7t7 -18v-70q0 -10 -7 -17t-18 -7h-434zM99 750q-16 0 -16 16q0 8 5 13l81 99q10 11 17 14.5t20 3.5h107q19 0 19 -19q0 -7 -5 -12l-124 -102q-8 -7 -15.5 -10t-19.5 -3h-69z" />
    <glyph glyph-name="lacute" unicode="&#x13a;" horiz-adv-x="265" 
d="M91 0q-10 0 -17 7t-7 17v662q0 10 7 17t17 7h83q10 0 17 -7t7 -17v-662q0 -10 -7 -17t-17 -7h-83zM90 751q-16 0 -16 16q0 8 5 13l81 99q10 11 17 14.5t20 3.5h100q19 0 19 -19q0 -7 -5 -12l-124 -102q-8 -7 -15.5 -10t-20.5 -3h-61z" />
    <glyph glyph-name="uni013B" unicode="&#x13b;" horiz-adv-x="580" 
d="M102 0q-10 0 -17 7t-7 17v652q0 10 7 17t17 7h93q10 0 17 -7t7 -17v-557h317q11 0 18 -7t7 -18v-70q0 -10 -7 -17t-18 -7h-434zM234 -226q-9 0 -13.5 6t-4.5 15l19 123q2 13 9.5 22.5t22.5 9.5h88q8 0 13 -5.5t5 -12.5t-2 -14l-47 -119q-4 -10 -11 -17.5t-21 -7.5h-58z
" />
    <glyph glyph-name="uni013C" unicode="&#x13c;" horiz-adv-x="265" 
d="M91 0q-10 0 -17 7t-7 17v662q0 10 7 17t17 7h83q10 0 17 -7t7 -17v-662q0 -10 -7 -17t-17 -7h-83zM61 -226q-9 0 -13.5 6t-4.5 15l19 123q2 13 9.5 22.5t22.5 9.5h84q8 0 13 -5.5t5 -12.5t-3 -14l-46 -119q-4 -10 -11 -17.5t-22 -7.5h-53z" />
    <glyph glyph-name="Lcaron" unicode="&#x13d;" horiz-adv-x="580" 
d="M102 0q-10 0 -17 7t-7 17v652q0 10 7 17t17 7h93q10 0 17 -7t7 -17v-557h317q11 0 18 -7t7 -18v-70q0 -10 -7 -17t-18 -7h-434zM355 497q-9 0 -13.5 6t-4.5 15l19 123q2 13 9.5 22.5t22.5 9.5h84q8 0 13 -5.5t5 -12.5t-3 -14l-46 -119q-4 -10 -11 -17.5t-22 -7.5h-53z
" />
    <glyph glyph-name="lcaron" unicode="&#x13e;" horiz-adv-x="332" 
d="M91 0q-10 0 -17 7t-7 17v662q0 10 7 17t17 7h83q10 0 17 -7t7 -17v-662q0 -10 -7 -17t-17 -7h-83zM268 534q-9 0 -13.5 6t-4.5 15l19 123q2 13 9.5 22.5t22.5 9.5h84q8 0 13 -5.5t5 -12.5t-3 -14l-46 -119q-4 -10 -11 -17.5t-22 -7.5h-53z" />
    <glyph glyph-name="Ldot" unicode="&#x13f;" horiz-adv-x="587" 
d="M102 0q-10 0 -17 7t-7 17v652q0 10 7 17t17 7h93q10 0 17 -7t7 -17v-557h317q11 0 18 -7t7 -18v-70q0 -10 -7 -17t-18 -7h-434zM400 312q-11 0 -17 6t-6 17v81q0 10 6 16.5t17 6.5h81q10 0 16.5 -6.5t6.5 -16.5v-81q0 -11 -6.5 -17t-16.5 -6h-81z" />
    <glyph glyph-name="ldot" unicode="&#x140;" horiz-adv-x="373" 
d="M91 0q-10 0 -17 7t-7 17v662q0 10 7 17t17 7h83q10 0 17 -7t7 -17v-662q0 -10 -7 -17t-17 -7h-83zM278 297q-10 0 -16 6t-6 16v82q0 10 6 16.5t16 6.5h82q10 0 16.5 -6.5t6.5 -16.5v-82q0 -10 -6.5 -16t-16.5 -6h-82z" />
    <glyph glyph-name="Lslash" unicode="&#x141;" horiz-adv-x="588" 
d="M110 0q-10 0 -17 7t-7 17v241l-42 -16q-7 -3 -12 -3q-8 0 -14 5t-6 14v55q0 12 5 18.5t17 10.5l52 19v308q0 10 7 17t17 7h93q10 0 17 -7t7 -17v-252l145 56q8 3 12 3q8 0 14 -5t6 -14v-55q0 -12 -5 -17.5t-17 -10.5l-155 -61v-201h318q10 0 17 -7t7 -17v-71
q0 -10 -7 -17t-17 -7h-435z" />
    <glyph glyph-name="lslash" unicode="&#x142;" horiz-adv-x="309" 
d="M114 0q-10 0 -17 7t-7 17v258l-34 -13q-7 -3 -12 -3q-9 0 -14.5 5t-5.5 14v55q0 13 5 19t17 10l44 16v301q0 10 7 17t17 7h83q10 0 17 -7t7 -17v-250l34 13q8 3 12 3q8 0 14 -5t6 -14v-55q0 -12 -5 -18t-17 -11l-44 -17v-308q0 -10 -7 -17t-17 -7h-83z" />
    <glyph glyph-name="Nacute" unicode="&#x143;" horiz-adv-x="707" 
d="M102 0q-10 0 -17 7t-7 17v651q0 11 7 18t17 7h77q14 0 20.5 -6.5t8.5 -9.5l288 -448v439q0 11 6.5 18t17.5 7h84q11 0 18 -7t7 -18v-650q0 -11 -7 -18t-17 -7h-78q-14 0 -20 7t-9 9l-287 438v-430q0 -10 -7 -17t-18 -7h-84zM309 750q-16 0 -16 16q0 8 5 13l81 99
q10 11 17 14.5t20 3.5h107q19 0 19 -19q0 -7 -5 -12l-124 -102q-8 -7 -15.5 -10t-19.5 -3h-69z" />
    <glyph glyph-name="nacute" unicode="&#x144;" horiz-adv-x="624" 
d="M90 0q-10 0 -17 7t-7 17v472q0 10 7 17t17 7h82q10 0 17 -7t7 -17v-41q26 32 66.5 53.5t100.5 21.5q61 0 106 -27.5t69.5 -77.5t24.5 -120v-281q0 -10 -7 -17t-17 -7h-88q-10 0 -17 7t-7 17v275q0 58 -28.5 91t-82.5 33q-52 0 -83 -33t-31 -91v-275q0 -10 -7 -17t-17 -7
h-88zM272 595q-16 0 -16 16q0 8 5 13l81 99q10 11 17 14.5t20 3.5h100q19 0 19 -19q0 -7 -5 -12l-124 -102q-8 -7 -15.5 -10t-20.5 -3h-61z" />
    <glyph glyph-name="uni0145" unicode="&#x145;" horiz-adv-x="707" 
d="M102 0q-10 0 -17 7t-7 17v651q0 11 7 18t17 7h77q14 0 20.5 -6.5t8.5 -9.5l288 -448v439q0 11 6.5 18t17.5 7h84q11 0 18 -7t7 -18v-650q0 -11 -7 -18t-17 -7h-78q-14 0 -20 7t-9 9l-287 438v-430q0 -10 -7 -17t-18 -7h-84zM282 -226q-9 0 -13.5 6t-4.5 15l19 123
q2 13 9.5 22.5t22.5 9.5h88q8 0 13 -5.5t5 -12.5t-2 -14l-47 -119q-4 -10 -11 -17.5t-21 -7.5h-58z" />
    <glyph glyph-name="uni0146" unicode="&#x146;" horiz-adv-x="624" 
d="M90 0q-10 0 -17 7t-7 17v472q0 10 7 17t17 7h82q10 0 17 -7t7 -17v-41q26 32 66.5 53.5t100.5 21.5q61 0 106 -27.5t69.5 -77.5t24.5 -120v-281q0 -10 -7 -17t-17 -7h-88q-10 0 -17 7t-7 17v275q0 58 -28.5 91t-82.5 33q-52 0 -83 -33t-31 -91v-275q0 -10 -7 -17t-17 -7
h-88zM244 -226q-9 0 -13.5 6t-4.5 15l19 123q2 13 9.5 22.5t22.5 9.5h84q8 0 13 -5.5t5 -12.5t-3 -14l-46 -119q-4 -10 -11 -17.5t-22 -7.5h-53z" />
    <glyph glyph-name="Ncaron" unicode="&#x147;" horiz-adv-x="707" 
d="M102 0q-10 0 -17 7t-7 17v651q0 11 7 18t17 7h77q14 0 20.5 -6.5t8.5 -9.5l288 -448v439q0 11 6.5 18t17.5 7h84q11 0 18 -7t7 -18v-650q0 -11 -7 -18t-17 -7h-78q-14 0 -20 7t-9 9l-287 438v-430q0 -10 -7 -17t-18 -7h-84zM324 750q-9 0 -16.5 3t-17.5 13l-98 100
q-9 9 -9 17q0 13 15 13h39q8 0 16.5 -1.5t14.5 -5.5l85 -52l85 52q7 4 15 5.5t16 1.5h39q15 0 15 -13q0 -8 -9 -17l-98 -100q-10 -10 -17 -13t-17 -3h-58z" />
    <glyph glyph-name="ncaron" unicode="&#x148;" horiz-adv-x="624" 
d="M90 0q-10 0 -17 7t-7 17v472q0 10 7 17t17 7h82q10 0 17 -7t7 -17v-41q26 32 66.5 53.5t100.5 21.5q61 0 106 -27.5t69.5 -77.5t24.5 -120v-281q0 -10 -7 -17t-17 -7h-88q-10 0 -17 7t-7 17v275q0 58 -28.5 91t-82.5 33q-52 0 -83 -33t-31 -91v-275q0 -10 -7 -17t-17 -7
h-88zM287 595q-8 0 -15.5 3t-18.5 13l-97 100q-9 9 -9 17q0 13 15 13h37q7 0 15.5 -1.5t15.5 -5.5l85 -52l84 52q7 4 15.5 5.5t16.5 1.5h36q15 0 15 -13q0 -8 -9 -17l-97 -100q-10 -10 -17.5 -13t-16.5 -3h-55z" />
    <glyph glyph-name="napostrophe" unicode="&#x149;" horiz-adv-x="624" 
d="M-23 569q-8 0 -13 6t-4 15l19 123q2 13 9.5 22.5t22.5 9.5h84q7 0 12 -5.5t5 -12.5t-2 -14l-46 -119q-4 -10 -11.5 -17.5t-21.5 -7.5h-54zM90 0q-10 0 -17 7t-7 17v472q0 10 7 17t17 7h82q10 0 17 -7t7 -17v-41q26 32 66.5 53.5t100.5 21.5q61 0 106 -27.5t69.5 -77.5
t24.5 -120v-281q0 -10 -7 -17t-17 -7h-88q-10 0 -17 7t-7 17v275q0 58 -28.5 91t-82.5 33q-52 0 -83 -33t-31 -91v-275q0 -10 -7 -17t-17 -7h-88z" />
    <glyph glyph-name="Eng" unicode="&#x14a;" horiz-adv-x="707" 
d="M398 -225q-11 0 -17.5 7t-6.5 17v70q0 10 6.5 17t17.5 7h18q32 0 49 11.5t24 31.5t7 45v39l-285 434v-430q0 -10 -7 -17t-18 -7h-84q-10 0 -17 7t-7 17v651q0 11 7 18t17 7h77q14 0 20.5 -6.5t8.5 -9.5l288 -448v439q0 11 6.5 18t17.5 7h84q11 0 18 -7t7 -18v-698
q0 -63 -24.5 -108t-74 -69.5t-123.5 -24.5h-9z" />
    <glyph glyph-name="eng" unicode="&#x14b;" horiz-adv-x="624" 
d="M328 -225q-10 0 -17 7t-7 17v69q0 10 7 17t17 7h18q34 0 51 12t23.5 34t6.5 52v309q0 58 -28.5 91t-82.5 33q-52 0 -83 -33t-31 -91v-275q0 -10 -7 -17t-17 -7h-88q-10 0 -17 7t-7 17v472q0 10 7 17t17 7h82q10 0 17 -7t7 -17v-41q26 32 66.5 53.5t100.5 21.5
q61 0 106 -27.5t69.5 -77.5t24.5 -120v-319q0 -67 -25 -114t-74 -72t-122 -25h-14z" />
    <glyph glyph-name="Omacron" unicode="&#x14c;" horiz-adv-x="695" 
d="M347 -10q-89 0 -153 29.5t-100 91t-39 153.5q-1 43 -1 85t1 86q3 91 40 152t101.5 92t150.5 31t151 -31t102 -92t40 -152q2 -44 2 -86t-2 -85q-3 -92 -39 -153.5t-100.5 -91t-153.5 -29.5zM347 105q65 0 106 38.5t44 125.5q2 44 2 81.5t-2 80.5q-2 58 -21.5 94.5
t-52.5 53t-76 16.5q-42 0 -75 -16.5t-52.5 -53t-21.5 -94.5q-1 -43 -1 -80.5t1 -81.5q3 -87 44 -125.5t105 -38.5zM211 750q-10 0 -16 6t-6 16v56q0 10 6 16t16 6h272q10 0 16 -6t6 -16v-56q0 -10 -6 -16t-16 -6h-272z" />
    <glyph glyph-name="omacron" unicode="&#x14d;" horiz-adv-x="592" 
d="M296 -10q-80 0 -134.5 28t-83 79t-32.5 119q-1 18 -1 44t1 44q4 69 33.5 119.5t84 78.5t132.5 28t132.5 -28t84 -78.5t33.5 -119.5q1 -18 1 -44t-1 -44q-4 -68 -32.5 -119t-83 -79t-134.5 -28zM296 89q53 0 82 33.5t32 98.5q1 15 1 39t-1 39q-3 65 -32 98.5t-82 33.5
t-82 -33.5t-32 -98.5q-1 -15 -1 -39t1 -39q3 -65 32 -98.5t82 -33.5zM170 611q-10 0 -16 6t-6 16v51q0 10 6 16t16 6h251q10 0 16.5 -6t6.5 -16v-51q0 -10 -6.5 -16t-16.5 -6h-251z" />
    <glyph glyph-name="Obreve" unicode="&#x14e;" horiz-adv-x="695" 
d="M347 -10q-89 0 -153 29.5t-100 91t-39 153.5q-1 43 -1 85t1 86q3 91 40 152t101.5 92t150.5 31t151 -31t102 -92t40 -152q2 -44 2 -86t-2 -85q-3 -92 -39 -153.5t-100.5 -91t-153.5 -29.5zM347 105q65 0 106 38.5t44 125.5q2 44 2 81.5t-2 80.5q-2 58 -21.5 94.5
t-52.5 53t-76 16.5q-42 0 -75 -16.5t-52.5 -53t-21.5 -94.5q-1 -43 -1 -80.5t1 -81.5q3 -87 44 -125.5t105 -38.5zM347 742q-51 0 -82 18.5t-44.5 48.5t-13.5 65q0 8 5 13.5t14 5.5h49q9 0 14 -5.5t5 -13.5q0 -23 10.5 -42t42.5 -19t42.5 19t10.5 42q0 8 5 13.5t14 5.5h49
q9 0 14 -5.5t5 -13.5q0 -35 -13.5 -65t-44 -48.5t-82.5 -18.5z" />
    <glyph glyph-name="obreve" unicode="&#x14f;" horiz-adv-x="592" 
d="M296 -10q-80 0 -134.5 28t-83 79t-32.5 119q-1 18 -1 44t1 44q4 69 33.5 119.5t84 78.5t132.5 28t132.5 -28t84 -78.5t33.5 -119.5q1 -18 1 -44t-1 -44q-4 -68 -32.5 -119t-83 -79t-134.5 -28zM296 89q53 0 82 33.5t32 98.5q1 15 1 39t-1 39q-3 65 -32 98.5t-82 33.5
t-82 -33.5t-32 -98.5q-1 -15 -1 -39t1 -39q3 -65 32 -98.5t82 -33.5zM296 590q-48 0 -78 18.5t-43.5 48.5t-13.5 65q0 8 5 13.5t14 5.5h47q9 0 14 -5.5t5 -13.5q0 -23 10.5 -42t39.5 -19q30 0 40 19t10 42q0 8 5 13.5t14 5.5h47q9 0 14 -5.5t5 -13.5q0 -35 -13.5 -65
t-43 -48.5t-78.5 -18.5z" />
    <glyph glyph-name="Ohungarumlaut" unicode="&#x150;" horiz-adv-x="695" 
d="M347 -10q-89 0 -153 29.5t-100 91t-39 153.5q-1 43 -1 85t1 86q3 91 40 152t101.5 92t150.5 31t151 -31t102 -92t40 -152q2 -44 2 -86t-2 -85q-3 -92 -39 -153.5t-100.5 -91t-153.5 -29.5zM347 105q65 0 106 38.5t44 125.5q2 44 2 81.5t-2 80.5q-2 58 -21.5 94.5
t-52.5 53t-76 16.5q-42 0 -75 -16.5t-52.5 -53t-21.5 -94.5q-1 -43 -1 -80.5t1 -81.5q3 -87 44 -125.5t105 -38.5zM412 750q-16 0 -16 16q0 4 2 8t3 7l44 96q9 19 37 19h87q20 0 20 -19q0 -7 -6 -13l-88 -100q-12 -14 -32 -14h-51zM225 750q-16 0 -16 16q0 4 2 8t3 7l43 96
q9 19 37 19h88q20 0 20 -19q0 -7 -6 -13l-89 -100q-12 -14 -31 -14h-51z" />
    <glyph glyph-name="ohungarumlaut" unicode="&#x151;" horiz-adv-x="592" 
d="M296 -10q-80 0 -134.5 28t-83 79t-32.5 119q-1 18 -1 44t1 44q4 69 33.5 119.5t84 78.5t132.5 28t132.5 -28t84 -78.5t33.5 -119.5q1 -18 1 -44t-1 -44q-4 -68 -32.5 -119t-83 -79t-134.5 -28zM296 89q53 0 82 33.5t32 98.5q1 15 1 39t-1 39q-3 65 -32 98.5t-82 33.5
t-82 -33.5t-32 -98.5q-1 -15 -1 -39t1 -39q3 -65 32 -98.5t82 -33.5zM354 595q-16 0 -16 16q0 4 2 8t3 7l43 96q9 19 37 19h80q20 0 20 -19q0 -7 -6 -13l-88 -100q-12 -14 -32 -14h-43zM165 595q-16 0 -16 16q0 4 2 8t3 7l43 96q9 19 37 19h81q20 0 20 -19q0 -7 -6 -13
l-89 -100q-12 -14 -32 -14h-43z" />
    <glyph glyph-name="OE" unicode="&#x152;" horiz-adv-x="941" 
d="M352 0q-100 0 -165 29.5t-96.5 90t-34.5 153.5q-1 43 -1 77t1 78q3 88 35.5 149t98.5 92t167 31h504q11 0 18 -7t7 -18v-66q0 -10 -7 -17t-18 -7h-297v-177h275q11 0 18 -6.5t7 -17.5v-62q0 -11 -7 -17.5t-18 -6.5h-275v-183h305q11 0 18 -7t7 -18v-66q0 -10 -7 -17
t-18 -7h-517zM357 115h73v470h-68q-86 0 -125 -39t-41 -121q0 -29 -0.5 -51.5t0 -45t0.5 -52.5q2 -58 18.5 -93.5t51.5 -51.5t91 -16z" />
    <glyph glyph-name="oe" unicode="&#x153;" horiz-adv-x="944" 
d="M297 -10q-80 0 -134.5 28t-83.5 79t-32 119q-1 18 -1 44t1 44q3 69 33 119.5t84.5 78.5t132.5 28q63 0 109.5 -22t75.5 -59q30 38 74 59.5t102 21.5q82 0 136.5 -33.5t82.5 -93t28 -137.5v-21q0 -10 -7 -17t-17 -7h-333v-8q1 -35 14 -64.5t37.5 -47.5t58.5 -18
q26 0 44.5 8.5t30 19.5t16.5 18q9 12 14.5 14.5t17.5 2.5h86q9 0 15.5 -6t5.5 -15q-1 -16 -16 -39t-44 -45t-71.5 -36.5t-97.5 -14.5q-58 0 -103 21t-75 58q-28 -37 -74 -58t-110 -21zM297 89q53 0 82 33.5t32 98.5q1 15 1 39t-1 39q-3 65 -32 98.5t-82 33.5t-82.5 -33.5
t-31.5 -98.5q-1 -15 -1 -39t1 -39q2 -65 31.5 -98.5t82.5 -33.5zM548 305h222v3q0 39 -13.5 68.5t-38.5 46t-60 16.5t-59.5 -16.5t-37.5 -46t-13 -68.5v-3z" />
    <glyph glyph-name="Racute" unicode="&#x154;" horiz-adv-x="673" 
d="M102 0q-10 0 -17 7t-7 17v651q0 11 7 18t17 7h259q121 0 191 -56t70 -163q0 -74 -36.5 -123t-97.5 -71l146 -255q3 -6 3 -11q0 -9 -6.5 -15t-14.5 -6h-91q-17 0 -26 9t-14 18l-129 237h-139v-240q0 -10 -6.5 -17t-17.5 -7h-91zM217 377h141q61 0 91 27.5t30 77.5
t-29.5 78.5t-91.5 28.5h-141v-212zM271 750q-16 0 -16 16q0 8 5 13l81 99q10 11 17 14.5t20 3.5h107q19 0 19 -19q0 -7 -5 -12l-124 -102q-8 -7 -15.5 -10t-19.5 -3h-69z" />
    <glyph glyph-name="racute" unicode="&#x155;" horiz-adv-x="417" 
d="M90 0q-10 0 -17 7t-7 17v471q0 11 7 18t17 7h81q10 0 17.5 -7t7.5 -18v-41q23 32 59.5 49t84.5 17h41q11 0 17.5 -7t6.5 -17v-72q0 -10 -6.5 -17t-17.5 -7h-78q-48 0 -74.5 -26.5t-26.5 -74.5v-275q0 -10 -7 -17t-18 -7h-87zM183 595q-16 0 -16 16q0 8 5 13l81 99
q10 11 17 14.5t20 3.5h100q19 0 19 -19q0 -7 -5 -12l-124 -102q-8 -7 -15.5 -10t-20.5 -3h-61z" />
    <glyph glyph-name="uni0156" unicode="&#x156;" horiz-adv-x="673" 
d="M102 0q-10 0 -17 7t-7 17v651q0 11 7 18t17 7h259q121 0 191 -56t70 -163q0 -74 -36.5 -123t-97.5 -71l146 -255q3 -6 3 -11q0 -9 -6.5 -15t-14.5 -6h-91q-17 0 -26 9t-14 18l-129 237h-139v-240q0 -10 -6.5 -17t-17.5 -7h-91zM217 377h141q61 0 91 27.5t30 77.5
t-29.5 78.5t-91.5 28.5h-141v-212zM267 -226q-9 0 -13.5 6t-4.5 15l19 123q2 13 9.5 22.5t22.5 9.5h88q8 0 13 -5.5t5 -12.5t-2 -14l-47 -119q-4 -10 -11 -17.5t-21 -7.5h-58z" />
    <glyph glyph-name="uni0157" unicode="&#x157;" horiz-adv-x="417" 
d="M90 0q-10 0 -17 7t-7 17v471q0 11 7 18t17 7h81q10 0 17.5 -7t7.5 -18v-41q23 32 59.5 49t84.5 17h41q11 0 17.5 -7t6.5 -17v-72q0 -10 -6.5 -17t-17.5 -7h-78q-48 0 -74.5 -26.5t-26.5 -74.5v-275q0 -10 -7 -17t-18 -7h-87zM61 -226q-9 0 -13.5 6t-4.5 15l19 123
q2 13 9.5 22.5t22.5 9.5h84q8 0 13 -5.5t5 -12.5t-3 -14l-46 -119q-4 -10 -11 -17.5t-22 -7.5h-53z" />
    <glyph glyph-name="Rcaron" unicode="&#x158;" horiz-adv-x="673" 
d="M102 0q-10 0 -17 7t-7 17v651q0 11 7 18t17 7h259q121 0 191 -56t70 -163q0 -74 -36.5 -123t-97.5 -71l146 -255q3 -6 3 -11q0 -9 -6.5 -15t-14.5 -6h-91q-17 0 -26 9t-14 18l-129 237h-139v-240q0 -10 -6.5 -17t-17.5 -7h-91zM217 377h141q61 0 91 27.5t30 77.5
t-29.5 78.5t-91.5 28.5h-141v-212zM287 750q-9 0 -16.5 3t-17.5 13l-98 100q-9 9 -9 17q0 13 15 13h39q8 0 16.5 -1.5t14.5 -5.5l85 -52l85 52q7 4 15 5.5t16 1.5h39q15 0 15 -13q0 -8 -9 -17l-98 -100q-10 -10 -17 -13t-17 -3h-58z" />
    <glyph glyph-name="rcaron" unicode="&#x159;" horiz-adv-x="417" 
d="M90 0q-10 0 -17 7t-7 17v471q0 11 7 18t17 7h81q10 0 17.5 -7t7.5 -18v-41q23 32 59.5 49t84.5 17h41q11 0 17.5 -7t6.5 -17v-72q0 -10 -6.5 -17t-17.5 -7h-78q-48 0 -74.5 -26.5t-26.5 -74.5v-275q0 -10 -7 -17t-18 -7h-87zM198 595q-8 0 -15.5 3t-18.5 13l-97 100
q-9 9 -9 17q0 13 15 13h37q7 0 15.5 -1.5t15.5 -5.5l85 -52l84 52q7 4 15.5 5.5t16.5 1.5h36q15 0 15 -13q0 -8 -9 -17l-97 -100q-10 -10 -17.5 -13t-16.5 -3h-55z" />
    <glyph glyph-name="Sacute" unicode="&#x15a;" horiz-adv-x="642" 
d="M321 -10q-93 0 -155.5 27.5t-95 72t-34.5 93.5q0 9 6 15t15 6h89q13 0 19.5 -5.5t11.5 -13.5q6 -19 23 -37.5t46.5 -30.5t74.5 -12q72 0 107.5 24t35.5 65q0 29 -19 46.5t-58.5 32t-104.5 30.5q-75 18 -125.5 43.5t-76 64.5t-25.5 99q0 58 31.5 103t90 71t139.5 26
q65 0 115 -17.5t83 -46t50.5 -61t18.5 -63.5q0 -8 -5.5 -14.5t-15.5 -6.5h-93q-8 0 -16 4t-13 15q-6 31 -39 53t-85 22q-54 0 -87 -20t-33 -62q0 -28 16.5 -46.5t53 -32.5t96.5 -30q85 -19 139 -44t79 -63.5t25 -97.5q0 -66 -35.5 -112.5t-99.5 -71.5t-149 -25zM277 750
q-16 0 -16 16q0 8 5 13l81 99q10 11 17 14.5t20 3.5h107q19 0 19 -19q0 -7 -5 -12l-124 -102q-8 -7 -15.5 -10t-19.5 -3h-69z" />
    <glyph glyph-name="sacute" unicode="&#x15b;" horiz-adv-x="532" 
d="M263 -10q-60 0 -102.5 14t-69.5 35t-40 42t-14 35q-1 11 6.5 17.5t16.5 6.5h79q4 0 7 -1t8 -6q13 -11 27.5 -23t34.5 -20.5t50 -8.5q39 0 65.5 15.5t26.5 44.5q0 21 -11.5 34t-42.5 23.5t-88 22.5q-56 13 -93 33t-55 50t-18 70q0 39 23.5 74.5t70 58.5t115.5 23
q54 0 94 -13.5t66.5 -33.5t40.5 -40.5t15 -35.5q1 -11 -6 -17.5t-16 -6.5h-74q-5 0 -9 2t-8 5q-11 10 -24 21.5t-31.5 19.5t-48.5 8q-38 0 -58 -16.5t-20 -41.5q0 -17 9.5 -29.5t38.5 -23.5t88 -23q67 -12 106.5 -35.5t56 -54t16.5 -67.5q0 -45 -26.5 -81t-78 -56.5
t-127.5 -20.5zM221 595q-16 0 -16 16q0 8 5 13l81 99q10 11 17 14.5t20 3.5h100q19 0 19 -19q0 -7 -5 -12l-124 -102q-8 -7 -15.5 -10t-20.5 -3h-61z" />
    <glyph glyph-name="Scircumflex" unicode="&#x15c;" horiz-adv-x="642" 
d="M321 -10q-93 0 -155.5 27.5t-95 72t-34.5 93.5q0 9 6 15t15 6h89q13 0 19.5 -5.5t11.5 -13.5q6 -19 23 -37.5t46.5 -30.5t74.5 -12q72 0 107.5 24t35.5 65q0 29 -19 46.5t-58.5 32t-104.5 30.5q-75 18 -125.5 43.5t-76 64.5t-25.5 99q0 58 31.5 103t90 71t139.5 26
q65 0 115 -17.5t83 -46t50.5 -61t18.5 -63.5q0 -8 -5.5 -14.5t-15.5 -6.5h-93q-8 0 -16 4t-13 15q-6 31 -39 53t-85 22q-54 0 -87 -20t-33 -62q0 -28 16.5 -46.5t53 -32.5t96.5 -30q85 -19 139 -44t79 -63.5t25 -97.5q0 -66 -35.5 -112.5t-99.5 -71.5t-149 -25zM167 750
q-15 0 -15 13q0 8 9 17l98 100q10 11 17.5 13.5t16.5 2.5h58q10 0 17 -2.5t17 -13.5l98 -100q9 -9 9 -17q0 -13 -15 -13h-39q-8 0 -16 1.5t-15 5.5l-85 53l-85 -53q-6 -4 -14.5 -5.5t-16.5 -1.5h-39z" />
    <glyph glyph-name="scircumflex" unicode="&#x15d;" horiz-adv-x="532" 
d="M263 -10q-60 0 -102.5 14t-69.5 35t-40 42t-14 35q-1 11 6.5 17.5t16.5 6.5h79q4 0 7 -1t8 -6q13 -11 27.5 -23t34.5 -20.5t50 -8.5q39 0 65.5 15.5t26.5 44.5q0 21 -11.5 34t-42.5 23.5t-88 22.5q-56 13 -93 33t-55 50t-18 70q0 39 23.5 74.5t70 58.5t115.5 23
q54 0 94 -13.5t66.5 -33.5t40.5 -40.5t15 -35.5q1 -11 -6 -17.5t-16 -6.5h-74q-5 0 -9 2t-8 5q-11 10 -24 21.5t-31.5 19.5t-48.5 8q-38 0 -58 -16.5t-20 -41.5q0 -17 9.5 -29.5t38.5 -23.5t88 -23q67 -12 106.5 -35.5t56 -54t16.5 -67.5q0 -45 -26.5 -81t-78 -56.5
t-127.5 -20.5zM112 595q-15 0 -15 13q0 8 9 17l97 100q11 11 18.5 13.5t15.5 2.5h55q9 0 16.5 -2.5t17.5 -13.5l97 -100q9 -9 9 -17q0 -13 -15 -13h-36q-8 0 -16.5 1.5t-15.5 5.5l-84 53l-85 -53q-7 -4 -15.5 -5.5t-15.5 -1.5h-37z" />
    <glyph glyph-name="Scedilla" unicode="&#x15e;" horiz-adv-x="642" 
d="M319 -220q-27 1 -49 10t-31 21t0 20l17 15q9 8 15.5 4.5t17 -10t30.5 -6.5q16 0 26.5 9.5t10.5 24.5q0 14 -10.5 23t-26.5 9q-13 0 -23.5 -3.5t-18.5 -5t-16 6.5l-18 18q-6 7 -4 14.5t6 16.5l20 47q-74 8 -125 36t-77 68.5t-27 84.5q0 9 6 15t15 6h89q13 0 19.5 -5.5
t11.5 -13.5q6 -19 23 -37.5t46.5 -30.5t74.5 -12q72 0 107.5 24t35.5 65q0 29 -19 46.5t-58.5 32t-104.5 30.5q-75 18 -125.5 43.5t-76 64.5t-25.5 99q0 58 31.5 103t90 71t139.5 26q65 0 115 -17.5t83 -46t50.5 -61t18.5 -63.5q0 -8 -5.5 -14.5t-15.5 -6.5h-93q-8 0 -16 4
t-13 15q-6 31 -39 53t-85 22q-54 0 -87 -20t-33 -62q0 -28 16.5 -46.5t53 -32.5t96.5 -30q85 -19 139 -44t79 -63.5t25 -97.5q0 -65 -35.5 -112t-98.5 -72t-148 -25l-21 -43q6 3 16.5 5t18.5 2q35 0 56.5 -24t21.5 -61q0 -38 -25 -64t-71 -25z" />
    <glyph glyph-name="scedilla" unicode="&#x15f;" horiz-adv-x="532" 
d="M276 -220q-27 1 -49 10t-31 21t0 20l17 15q9 8 15.5 4.5t17 -10t30.5 -6.5q16 0 26.5 9.5t10.5 24.5q0 14 -10.5 23t-26.5 9q-13 0 -23.5 -3.5t-18.5 -5t-16 6.5l-18 18q-6 7 -4 14.5t6 16.5l20 46q-66 7 -106.5 30t-59 49.5t-19.5 43.5q-1 11 6.5 17.5t16.5 6.5h76
q4 0 7.5 -1t8.5 -6q14 -10 28.5 -22.5t35 -21t50.5 -8.5q39 0 65.5 15.5t26.5 44.5q0 21 -11.5 34t-42.5 23.5t-88 22.5q-56 13 -93 33t-55 50t-18 70q0 39 23.5 74.5t70 58.5t115.5 23q54 0 94 -13.5t66.5 -33.5t40.5 -40.5t15 -35.5q1 -11 -6 -17.5t-16 -6.5h-74
q-6 0 -9.5 2t-7.5 5q-11 10 -24 21.5t-31.5 19.5t-48.5 8q-38 0 -58 -16.5t-20 -41.5q0 -17 9.5 -29.5t38.5 -23.5t88 -23q67 -12 106.5 -35.5t56 -54t16.5 -67.5q0 -66 -55 -110t-160 -48l-21 -43q6 3 16.5 5t18.5 2q35 0 56.5 -24t21.5 -61q0 -38 -25 -64t-71 -25z" />
    <glyph glyph-name="Scaron" unicode="&#x160;" horiz-adv-x="642" 
d="M321 -10q-93 0 -155.5 27.5t-95 72t-34.5 93.5q0 9 6 15t15 6h89q13 0 19.5 -5.5t11.5 -13.5q6 -19 23 -37.5t46.5 -30.5t74.5 -12q72 0 107.5 24t35.5 65q0 29 -19 46.5t-58.5 32t-104.5 30.5q-75 18 -125.5 43.5t-76 64.5t-25.5 99q0 58 31.5 103t90 71t139.5 26
q65 0 115 -17.5t83 -46t50.5 -61t18.5 -63.5q0 -8 -5.5 -14.5t-15.5 -6.5h-93q-8 0 -16 4t-13 15q-6 31 -39 53t-85 22q-54 0 -87 -20t-33 -62q0 -28 16.5 -46.5t53 -32.5t96.5 -30q85 -19 139 -44t79 -63.5t25 -97.5q0 -66 -35.5 -112.5t-99.5 -71.5t-149 -25zM293 750
q-9 0 -16.5 3t-17.5 13l-98 100q-9 9 -9 17q0 13 15 13h39q8 0 16.5 -1.5t14.5 -5.5l85 -52l85 52q7 4 15 5.5t16 1.5h39q15 0 15 -13q0 -8 -9 -17l-98 -100q-10 -10 -17 -13t-17 -3h-58z" />
    <glyph glyph-name="scaron" unicode="&#x161;" horiz-adv-x="532" 
d="M263 -10q-60 0 -102.5 14t-69.5 35t-40 42t-14 35q-1 11 6.5 17.5t16.5 6.5h79q4 0 7 -1t8 -6q13 -11 27.5 -23t34.5 -20.5t50 -8.5q39 0 65.5 15.5t26.5 44.5q0 21 -11.5 34t-42.5 23.5t-88 22.5q-56 13 -93 33t-55 50t-18 70q0 39 23.5 74.5t70 58.5t115.5 23
q54 0 94 -13.5t66.5 -33.5t40.5 -40.5t15 -35.5q1 -11 -6 -17.5t-16 -6.5h-74q-5 0 -9 2t-8 5q-11 10 -24 21.5t-31.5 19.5t-48.5 8q-38 0 -58 -16.5t-20 -41.5q0 -17 9.5 -29.5t38.5 -23.5t88 -23q67 -12 106.5 -35.5t56 -54t16.5 -67.5q0 -45 -26.5 -81t-78 -56.5
t-127.5 -20.5zM237 595q-8 0 -15.5 3t-18.5 13l-97 100q-9 9 -9 17q0 13 15 13h37q7 0 15.5 -1.5t15.5 -5.5l85 -52l84 52q7 4 15.5 5.5t16.5 1.5h36q15 0 15 -13q0 -8 -9 -17l-97 -100q-10 -10 -17.5 -13t-16.5 -3h-55z" />
    <glyph glyph-name="Tcaron" unicode="&#x164;" horiz-adv-x="605" 
d="M256 0q-10 0 -17 7t-7 17v553h-185q-10 0 -17 7t-7 17v74q0 11 7 18t17 7h510q11 0 18 -7t7 -18v-74q0 -10 -7 -17t-18 -7h-184v-553q0 -10 -7 -17t-18 -7h-92zM274 750q-9 0 -16.5 3t-17.5 13l-98 100q-9 9 -9 17q0 13 15 13h39q8 0 16.5 -1.5t14.5 -5.5l85 -52l85 52
q7 4 15 5.5t16 1.5h39q15 0 15 -13q0 -8 -9 -17l-98 -100q-10 -10 -17 -13t-17 -3h-58z" />
    <glyph glyph-name="tcaron" unicode="&#x165;" horiz-adv-x="429" 
d="M301 0q-60 0 -101 21t-61 62.5t-20 103.5v227h-79q-10 0 -17 7t-7 18v57q0 10 7 17t17 7h79v166q0 10 6.5 17t17.5 7h81q10 0 17 -7t7 -17v-166h125q10 0 17 -7t7 -17v-57q0 -11 -7 -18t-17 -7h-125v-217q0 -41 14.5 -64t50.5 -23h69q10 0 17 -7t7 -17v-62q0 -10 -7 -17
t-17 -7h-81zM336 610q-9 0 -13.5 6t-4.5 15l19 123q2 13 9.5 22.5t22.5 9.5h84q8 0 13 -5.5t5 -12.5t-3 -14l-46 -119q-4 -10 -11 -17.5t-22 -7.5h-53z" />
    <glyph glyph-name="Tbar" unicode="&#x166;" horiz-adv-x="614" 
d="M261 0q-11 0 -17.5 7t-6.5 17v289h-107q-10 0 -17 6.5t-7 17.5v37q0 11 7 18t17 7h107v178h-185q-11 0 -17.5 7t-6.5 17v74q0 11 6.5 18t17.5 7h510q11 0 17.5 -7t6.5 -18v-74q0 -10 -6.5 -17t-17.5 -7h-185v-178h106q11 0 18 -7t7 -18v-37q0 -11 -7 -17.5t-18 -6.5h-106
v-289q0 -10 -6.5 -17t-17.5 -7h-92z" />
    <glyph glyph-name="tbar" unicode="&#x167;" horiz-adv-x="434" 
d="M304 0q-60 0 -100.5 21t-61 62.5t-20.5 103.5v101h-78q-11 0 -17.5 7t-6.5 17v29q0 11 6.5 17.5t17.5 6.5h78v78h-78q-11 0 -17.5 7t-6.5 17v29q0 10 6.5 17t17.5 7h78v166q0 10 7 17t17 7h81q11 0 17.5 -7t6.5 -17v-166h125q11 0 17.5 -7t6.5 -17v-29q0 -10 -6.5 -17
t-17.5 -7h-125v-78h125q11 0 17.5 -6.5t6.5 -17.5v-29q0 -10 -6.5 -17t-17.5 -7h-125v-91q0 -41 15 -64t50 -23h69q11 0 17.5 -7t6.5 -17v-62q0 -10 -6.5 -17t-17.5 -7h-81z" />
    <glyph glyph-name="Utilde" unicode="&#x168;" horiz-adv-x="713" 
d="M357 -10q-87 0 -151 29.5t-99 91t-35 157.5v407q0 11 7 18t17 7h91q11 0 17.5 -7t6.5 -18v-407q0 -82 39 -121.5t107 -39.5t106.5 39.5t38.5 121.5v407q0 11 7 18t18 7h90q11 0 17.5 -7t6.5 -18v-407q0 -96 -34.5 -157.5t-98 -91t-151.5 -29.5zM413 745q-26 0 -43.5 8.5
t-31.5 17.5t-30 9q-13 0 -18.5 -7.5t-10.5 -15t-16 -7.5h-46q-7 0 -12 5t-5 12q0 15 5.5 34t18 36.5t31.5 28.5t44 11q27 0 44.5 -8.5t31.5 -17.5t30 -9q13 0 18.5 8t10.5 15.5t16 7.5h46q8 0 12.5 -5.5t4.5 -12.5q0 -15 -6 -34t-18.5 -36t-31 -28.5t-44.5 -11.5z" />
    <glyph glyph-name="utilde" unicode="&#x169;" horiz-adv-x="621" 
d="M259 -10q-61 0 -105.5 27.5t-68.5 78t-24 119.5v281q0 10 7 17t17 7h88q11 0 17.5 -7t6.5 -17v-275q0 -124 109 -124q52 0 82.5 33t30.5 91v275q0 10 7 17t17 7h88q10 0 17 -7t7 -17v-472q0 -10 -7 -17t-17 -7h-81q-11 0 -17.5 7t-6.5 17v41q-27 -35 -67 -55t-100 -20z
M364 590q-26 0 -42 8.5t-29.5 17.5t-29.5 9q-13 0 -18.5 -7.5t-10.5 -15t-16 -7.5h-46q-7 0 -12 5t-5 12q0 15 5.5 33.5t17.5 35.5t30.5 27.5t43.5 10.5q27 0 43 -8.5t29.5 -17.5t29.5 -9q13 0 18.5 8t10.5 15.5t16 7.5h46q8 0 12.5 -5.5t4.5 -12.5q0 -15 -5.5 -33.5
t-17.5 -35.5t-30.5 -27.5t-44.5 -10.5z" />
    <glyph glyph-name="Umacron" unicode="&#x16a;" horiz-adv-x="713" 
d="M357 -10q-87 0 -151 29.5t-99 91t-35 157.5v407q0 11 7 18t17 7h91q11 0 17.5 -7t6.5 -18v-407q0 -82 39 -121.5t107 -39.5t106.5 39.5t38.5 121.5v407q0 11 7 18t18 7h90q11 0 17.5 -7t6.5 -18v-407q0 -96 -34.5 -157.5t-98 -91t-151.5 -29.5zM221 750q-10 0 -16 6
t-6 16v56q0 10 6 16t16 6h272q10 0 16 -6t6 -16v-56q0 -10 -6 -16t-16 -6h-272z" />
    <glyph glyph-name="umacron" unicode="&#x16b;" horiz-adv-x="621" 
d="M259 -10q-61 0 -105.5 27.5t-68.5 78t-24 119.5v281q0 10 7 17t17 7h88q11 0 17.5 -7t6.5 -17v-275q0 -124 109 -124q52 0 82.5 33t30.5 91v275q0 10 7 17t17 7h88q10 0 17 -7t7 -17v-472q0 -10 -7 -17t-17 -7h-81q-11 0 -17.5 7t-6.5 17v41q-27 -35 -67 -55t-100 -20z
M182 611q-10 0 -16 6t-6 16v51q0 10 6 16t16 6h251q10 0 16.5 -6t6.5 -16v-51q0 -10 -6.5 -16t-16.5 -6h-251z" />
    <glyph glyph-name="Ubreve" unicode="&#x16c;" horiz-adv-x="713" 
d="M357 -10q-87 0 -151 29.5t-99 91t-35 157.5v407q0 11 7 18t17 7h91q11 0 17.5 -7t6.5 -18v-407q0 -82 39 -121.5t107 -39.5t106.5 39.5t38.5 121.5v407q0 11 7 18t18 7h90q11 0 17.5 -7t6.5 -18v-407q0 -96 -34.5 -157.5t-98 -91t-151.5 -29.5zM357 742q-51 0 -82 18.5
t-44.5 48.5t-13.5 65q0 8 5 13.5t14 5.5h49q9 0 14 -5.5t5 -13.5q0 -23 10.5 -42t42.5 -19t42.5 19t10.5 42q0 8 5 13.5t14 5.5h49q9 0 14 -5.5t5 -13.5q0 -35 -13.5 -65t-44 -48.5t-82.5 -18.5z" />
    <glyph glyph-name="ubreve" unicode="&#x16d;" horiz-adv-x="621" 
d="M259 -10q-61 0 -105.5 27.5t-68.5 78t-24 119.5v281q0 10 7 17t17 7h88q11 0 17.5 -7t6.5 -17v-275q0 -124 109 -124q52 0 82.5 33t30.5 91v275q0 10 7 17t17 7h88q10 0 17 -7t7 -17v-472q0 -10 -7 -17t-17 -7h-81q-11 0 -17.5 7t-6.5 17v41q-27 -35 -67 -55t-100 -20z
M308 590q-48 0 -78 18.5t-43.5 48.5t-13.5 65q0 8 5 13.5t14 5.5h47q9 0 14 -5.5t5 -13.5q0 -23 10.5 -42t39.5 -19q30 0 40 19t10 42q0 8 5 13.5t14 5.5h47q9 0 14 -5.5t5 -13.5q0 -35 -13.5 -65t-43 -48.5t-78.5 -18.5z" />
    <glyph glyph-name="Uring" unicode="&#x16e;" horiz-adv-x="713" 
d="M357 -10q-87 0 -151 29.5t-99 91t-35 157.5v407q0 11 7 18t17 7h91q11 0 17.5 -7t6.5 -18v-407q0 -82 39 -121.5t107 -39.5t106.5 39.5t38.5 121.5v407q0 11 7 18t18 7h90q11 0 17.5 -7t6.5 -18v-407q0 -96 -34.5 -157.5t-98 -91t-151.5 -29.5zM357 740q-36 0 -62 23.5
t-26 59.5t26 59.5t62 23.5t62 -23.5t26 -59.5t-26 -59.5t-62 -23.5zM357 793q13 0 21.5 8.5t8.5 21.5t-8.5 21.5t-21.5 8.5t-21.5 -8.5t-8.5 -21.5t8.5 -21.5t21.5 -8.5z" />
    <glyph glyph-name="uring" unicode="&#x16f;" horiz-adv-x="621" 
d="M259 -10q-61 0 -105.5 27.5t-68.5 78t-24 119.5v281q0 10 7 17t17 7h88q11 0 17.5 -7t6.5 -17v-275q0 -124 109 -124q52 0 82.5 33t30.5 91v275q0 10 7 17t17 7h88q10 0 17 -7t7 -17v-472q0 -10 -7 -17t-17 -7h-81q-11 0 -17.5 7t-6.5 17v41q-27 -35 -67 -55t-100 -20z
M309 590q-36 0 -62 23.5t-26 59.5t26 59.5t62 23.5t62 -23.5t26 -59.5t-26 -59.5t-62 -23.5zM309 643q13 0 21.5 8.5t8.5 21.5t-8.5 21.5t-21.5 8.5t-21.5 -8.5t-8.5 -21.5t8.5 -21.5t21.5 -8.5z" />
    <glyph glyph-name="Uhungarumlaut" unicode="&#x170;" horiz-adv-x="713" 
d="M357 -10q-87 0 -151 29.5t-99 91t-35 157.5v407q0 11 7 18t17 7h91q11 0 17.5 -7t6.5 -18v-407q0 -82 39 -121.5t107 -39.5t106.5 39.5t38.5 121.5v407q0 11 7 18t18 7h90q11 0 17.5 -7t6.5 -18v-407q0 -96 -34.5 -157.5t-98 -91t-151.5 -29.5zM422 750q-16 0 -16 16
q0 4 2 8t3 7l44 96q9 19 37 19h87q20 0 20 -19q0 -7 -6 -13l-88 -100q-12 -14 -32 -14h-51zM235 750q-16 0 -16 16q0 4 2 8t3 7l43 96q9 19 37 19h88q20 0 20 -19q0 -7 -6 -13l-89 -100q-12 -14 -31 -14h-51z" />
    <glyph glyph-name="uhungarumlaut" unicode="&#x171;" horiz-adv-x="621" 
d="M259 -10q-61 0 -105.5 27.5t-68.5 78t-24 119.5v281q0 10 7 17t17 7h88q11 0 17.5 -7t6.5 -17v-275q0 -124 109 -124q52 0 82.5 33t30.5 91v275q0 10 7 17t17 7h88q10 0 17 -7t7 -17v-472q0 -10 -7 -17t-17 -7h-81q-11 0 -17.5 7t-6.5 17v41q-27 -35 -67 -55t-100 -20z
M366 595q-16 0 -16 16q0 4 2 8t3 7l43 96q9 19 37 19h80q20 0 20 -19q0 -7 -6 -13l-88 -100q-12 -14 -32 -14h-43zM177 595q-16 0 -16 16q0 4 2 8t3 7l43 96q9 19 37 19h81q20 0 20 -19q0 -7 -6 -13l-89 -100q-12 -14 -32 -14h-43z" />
    <glyph glyph-name="Uogonek" unicode="&#x172;" horiz-adv-x="713" 
d="M429 -220q-49 0 -82 19.5t-50 53.5t-17 78q0 21 3 36.5t8 27.5q-102 15 -160.5 81.5t-58.5 191.5v407q0 11 7 18t17 7h91q11 0 17.5 -7t6.5 -18v-407q0 -82 39 -121.5t107 -39.5t106.5 39.5t38.5 121.5v407q0 11 7 18t18 7h90q11 0 17.5 -7t6.5 -18v-407
q0 -82 -26 -138.5t-74 -89.5t-114 -45q-29 -6 -44.5 -20.5t-15.5 -43.5t17 -48.5t49 -19.5h12q11 0 18 -6.5t7 -17.5v-35q0 -10 -7 -17t-18 -7h-16z" />
    <glyph glyph-name="uogonek" unicode="&#x173;" horiz-adv-x="621" 
d="M520 -220q-42 0 -73 18.5t-47.5 51.5t-16.5 77q0 22 8 40.5t20 32t23 21.5q-4 2 -6 6t-2 10v28q-27 -35 -67 -55t-100 -20q-61 0 -105.5 27.5t-68.5 78t-24 119.5v281q0 10 7 17t17 7h88q11 0 17.5 -7t6.5 -17v-275q0 -124 109 -124q52 0 82.5 33t30.5 91v275q0 10 7 17
t17 7h88q10 0 17 -7t7 -17v-472q0 -8 -5.5 -14.5t-15.5 -9.5l-8 -1q-29 -9 -42.5 -27.5t-13.5 -44.5q0 -29 13.5 -46.5t40.5 -17.5h7q10 0 17 -6.5t7 -17.5v-35q0 -10 -7 -17t-17 -7h-11z" />
    <glyph glyph-name="Wcircumflex" unicode="&#x174;" horiz-adv-x="816" 
d="M193 0q-15 0 -23.5 8.5t-11.5 21.5l-119 641q0 3 -0.5 5t-0.5 3q0 9 6.5 15t14.5 6h88q25 0 28 -20l83 -453l90 293q3 8 10.5 16.5t22.5 8.5h54q16 0 23 -8.5t9 -16.5l91 -292l83 452q3 20 28 20h88q8 0 14 -6t6 -15v-3t-1 -5l-119 -641q-2 -13 -11 -21.5t-24 -8.5h-67
q-15 0 -23.5 8t-11.5 17l-112 334l-112 -334q-4 -9 -12 -17t-24 -8h-67zM253 750q-15 0 -15 13q0 8 9 17l98 100q10 11 17.5 13.5t16.5 2.5h58q10 0 17 -2.5t17 -13.5l98 -100q9 -9 9 -17q0 -13 -15 -13h-39q-8 0 -16 1.5t-15 5.5l-85 53l-85 -53q-6 -4 -14.5 -5.5
t-16.5 -1.5h-39z" />
    <glyph glyph-name="wcircumflex" unicode="&#x175;" horiz-adv-x="820" 
d="M208 0q-14 0 -21 7t-12 18l-143 464q-1 5 -1 9q0 9 6.5 15.5t14.5 6.5h74q12 0 19 -6.5t8 -12.5l98 -331l104 328q2 7 9 14.5t21 7.5h50q14 0 21 -7.5t9 -14.5l104 -328l98 331q1 6 7.5 12.5t18.5 6.5h74q9 0 15.5 -6.5t6.5 -15.5q0 -4 -2 -9l-143 -464q-3 -11 -10.5 -18
t-21.5 -7h-65q-13 0 -21.5 7t-11.5 18l-104 316l-104 -316q-4 -11 -11.5 -18t-22.5 -7h-64zM258 595q-15 0 -15 13q0 8 9 17l97 100q11 11 18.5 13.5t15.5 2.5h55q9 0 16.5 -2.5t17.5 -13.5l97 -100q9 -9 9 -17q0 -13 -15 -13h-36q-8 0 -16.5 1.5t-15.5 5.5l-84 53l-85 -53
q-7 -4 -15.5 -5.5t-15.5 -1.5h-37z" />
    <glyph glyph-name="Ycircumflex" unicode="&#x176;" horiz-adv-x="664" 
d="M286 0q-10 0 -17 7t-7 17v226l-236 418q-1 2 -2 5t-1 6q0 9 6 15t14 6h89q12 0 19.5 -6t10.5 -13l170 -291l169 291q4 7 11.5 13t19.5 6h88q9 0 15 -6t6 -15q0 -3 -0.5 -6t-2.5 -5l-236 -418v-226q0 -10 -7 -17t-18 -7h-91zM177 750q-15 0 -15 13q0 8 9 17l98 100
q10 11 17.5 13.5t16.5 2.5h58q10 0 17 -2.5t17 -13.5l98 -100q9 -9 9 -17q0 -13 -15 -13h-39q-8 0 -16 1.5t-15 5.5l-85 53l-85 -53q-6 -4 -14.5 -5.5t-16.5 -1.5h-39z" />
    <glyph glyph-name="ycircumflex" unicode="&#x177;" horiz-adv-x="574" 
d="M160 -190q-8 0 -14 6t-6 14q0 4 0.5 7.5t3.5 8.5l78 185l-192 453q-4 10 -4 14q1 9 7 15.5t15 6.5h81q12 0 18 -6t9 -13l133 -327l137 327q3 8 9 13.5t18 5.5h80q8 0 14.5 -6t6.5 -14q0 -6 -4 -16l-283 -655q-4 -8 -10 -13.5t-18 -5.5h-79zM134 595q-15 0 -15 13
q0 8 9 17l97 100q11 11 18.5 13.5t15.5 2.5h55q9 0 16.5 -2.5t17.5 -13.5l97 -100q9 -9 9 -17q0 -13 -15 -13h-36q-8 0 -16.5 1.5t-15.5 5.5l-84 53l-85 -53q-7 -4 -15.5 -5.5t-15.5 -1.5h-37z" />
    <glyph glyph-name="Ydieresis" unicode="&#x178;" horiz-adv-x="664" 
d="M286 0q-10 0 -17 7t-7 17v226l-236 418q-1 2 -2 5t-1 6q0 9 6 15t14 6h89q12 0 19.5 -6t10.5 -13l170 -291l169 291q4 7 11.5 13t19.5 6h88q9 0 15 -6t6 -15q0 -3 -0.5 -6t-2.5 -5l-236 -418v-226q0 -10 -7 -17t-18 -7h-91zM404 750q-10 0 -16 6t-6 16v73q0 10 6 16.5
t16 6.5h73q10 0 16.5 -6.5t6.5 -16.5v-73q0 -10 -6.5 -16t-16.5 -6h-73zM186 750q-10 0 -16 6t-6 16v73q0 10 6 16.5t16 6.5h73q10 0 16.5 -6.5t6.5 -16.5v-73q0 -10 -6.5 -16t-16.5 -6h-73z" />
    <glyph glyph-name="Zacute" unicode="&#x179;" horiz-adv-x="625" 
d="M63 0q-10 0 -17 7t-7 18v70q0 15 6 24t9 13l348 450h-329q-11 0 -17.5 7t-6.5 17v69q0 11 6.5 18t17.5 7h478q11 0 18 -7t7 -18v-69q0 -12 -4 -20t-9 -15l-341 -452h340q11 0 18 -7t7 -18v-70q0 -10 -7 -17t-18 -7h-499zM258 750q-16 0 -16 16q0 8 5 13l81 99
q10 11 17 14.5t20 3.5h107q19 0 19 -19q0 -7 -5 -12l-124 -102q-8 -7 -15.5 -10t-19.5 -3h-69z" />
    <glyph glyph-name="zacute" unicode="&#x17a;" horiz-adv-x="531" 
d="M64 0q-11 0 -17.5 7t-6.5 17v57q0 9 4.5 17.5t9.5 14.5l256 303h-238q-10 0 -17 6.5t-7 17.5v56q0 10 7 17t17 7h379q11 0 17.5 -7t6.5 -17v-61q0 -9 -4 -16t-10 -14l-250 -301h261q10 0 17 -6.5t7 -17.5v-56q0 -10 -7 -17t-17 -7h-408zM223 595q-16 0 -16 16q0 8 5 13
l81 99q10 11 17 14.5t20 3.5h100q19 0 19 -19q0 -7 -5 -12l-124 -102q-8 -7 -15.5 -10t-20.5 -3h-61z" />
    <glyph glyph-name="Zdotaccent" unicode="&#x17b;" horiz-adv-x="625" 
d="M63 0q-10 0 -17 7t-7 18v70q0 15 6 24t9 13l348 450h-329q-11 0 -17.5 7t-6.5 17v69q0 11 6.5 18t17.5 7h478q11 0 18 -7t7 -18v-69q0 -12 -4 -20t-9 -15l-341 -452h340q11 0 18 -7t7 -18v-70q0 -10 -7 -17t-18 -7h-499zM260 750q-10 0 -16 6t-6 16v84q0 10 6 16.5
t16 6.5h84q10 0 16.5 -6.5t6.5 -16.5v-84q0 -10 -6.5 -16t-16.5 -6h-84z" />
    <glyph glyph-name="zdotaccent" unicode="&#x17c;" horiz-adv-x="531" 
d="M64 0q-11 0 -17.5 7t-6.5 17v57q0 9 4.5 17.5t9.5 14.5l256 303h-238q-10 0 -17 6.5t-7 17.5v56q0 10 7 17t17 7h379q11 0 17.5 -7t6.5 -17v-61q0 -9 -4 -16t-10 -14l-250 -301h261q10 0 17 -6.5t7 -17.5v-56q0 -10 -7 -17t-17 -7h-408zM224 608q-10 0 -16 6t-6 16v82
q0 10 6 16.5t16 6.5h82q10 0 16.5 -6.5t6.5 -16.5v-82q0 -10 -6.5 -16t-16.5 -6h-82z" />
    <glyph glyph-name="Zcaron" unicode="&#x17d;" horiz-adv-x="625" 
d="M63 0q-10 0 -17 7t-7 18v70q0 15 6 24t9 13l348 450h-329q-11 0 -17.5 7t-6.5 17v69q0 11 6.5 18t17.5 7h478q11 0 18 -7t7 -18v-69q0 -12 -4 -20t-9 -15l-341 -452h340q11 0 18 -7t7 -18v-70q0 -10 -7 -17t-18 -7h-499zM274 750q-9 0 -16.5 3t-17.5 13l-98 100
q-9 9 -9 17q0 13 15 13h39q8 0 16.5 -1.5t14.5 -5.5l85 -52l85 52q7 4 15 5.5t16 1.5h39q15 0 15 -13q0 -8 -9 -17l-98 -100q-10 -10 -17 -13t-17 -3h-58z" />
    <glyph glyph-name="zcaron" unicode="&#x17e;" horiz-adv-x="531" 
d="M64 0q-11 0 -17.5 7t-6.5 17v57q0 9 4.5 17.5t9.5 14.5l256 303h-238q-10 0 -17 6.5t-7 17.5v56q0 10 7 17t17 7h379q11 0 17.5 -7t6.5 -17v-61q0 -9 -4 -16t-10 -14l-250 -301h261q10 0 17 -6.5t7 -17.5v-56q0 -10 -7 -17t-17 -7h-408zM239 595q-8 0 -15.5 3t-18.5 13
l-97 100q-9 9 -9 17q0 13 15 13h37q7 0 15.5 -1.5t15.5 -5.5l85 -52l84 52q7 4 15.5 5.5t16.5 1.5h36q15 0 15 -13q0 -8 -9 -17l-97 -100q-10 -10 -17.5 -13t-16.5 -3h-55z" />
    <glyph glyph-name="longs" unicode="&#x17f;" horiz-adv-x="319" 
d="M147 0q-11 0 -17.5 7t-6.5 17v390h-81q-11 0 -17.5 7t-6.5 18v57q0 10 6.5 17t17.5 7h81v38q0 61 21.5 101.5t65 60.5t108.5 20h69q10 0 17 -7t7 -17v-57q0 -11 -7 -18t-17 -7h-64q-30 0 -45.5 -10.5t-20.5 -27.5t-5 -40v-532q0 -10 -7 -17t-17 -7h-81z" />
    <glyph glyph-name="florin" unicode="&#x192;" horiz-adv-x="447" 
d="M35 -225q-11 0 -17.5 7t-6.5 17v69q0 10 6.5 17t17.5 7h20q34 0 51 12t23.5 34t6.5 52v424h-81q-10 0 -17 7t-7 18v57q0 10 7 17t17 7h81v41q0 60 21.5 99.5t65 59.5t108.5 20h69q10 0 17 -7t7 -17v-57q0 -11 -7 -18t-17 -7h-64q-40 0 -55.5 -20t-15.5 -58v-36h125
q10 0 17 -7t7 -17v-57q0 -11 -7 -18t-17 -7h-125v-428q0 -67 -21 -114t-67 -72t-122 -25h-20z" />
    <glyph glyph-name="AEacute" unicode="&#x1fc;" horiz-adv-x="955" 
d="M25 0q-8 0 -14 6t-6 15q0 5 2 11q8 22 17 46t23 56.5t35 78.5t52 109.5t76 150.5t105 202q5 11 13.5 18t20.5 7h525q11 0 18 -7t7 -18v-66q0 -10 -7 -17t-18 -7h-317v-177h295q11 0 18 -6.5t7 -17.5v-62q0 -11 -7 -17.5t-18 -6.5h-295v-183h325q11 0 18 -7t7 -18v-66
q0 -10 -7 -17t-18 -7h-436q-10 0 -17 7t-7 17v117h-216q-20 -38 -32.5 -61t-18.5 -35t-8.5 -17.5t-3.5 -8.5q-3 -7 -9.5 -13t-19.5 -6h-89zM247 256h175v325h-13zM433 750q-16 0 -16 16q0 8 5 13l81 99q10 11 17 14.5t20 3.5h107q19 0 19 -19q0 -7 -5 -12l-124 -102
q-8 -7 -15.5 -10t-19.5 -3h-69z" />
    <glyph glyph-name="aeacute" unicode="&#x1fd;" horiz-adv-x="903" 
d="M226 -10q-59 0 -103 20.5t-67.5 55t-23.5 77.5q0 70 57 112t150 56l137 20v21q0 42 -21.5 64.5t-71.5 22.5q-29 0 -48 -9.5t-32 -22t-23 -22.5q-3 -7 -6.5 -9.5t-8.5 -2.5h-77q-9 0 -15.5 6t-6.5 16q0 16 12.5 39t38.5 44.5t67.5 36.5t99.5 15q68 0 108 -19t61 -48
q29 30 69.5 48.5t96.5 18.5q71 0 118 -24t74.5 -63t39 -85.5t11.5 -91.5v-21q0 -10 -7 -17t-18 -7h-326v-8q1 -46 16.5 -75t40 -42t50.5 -13t51 11.5t43 34.5q8 11 14 14t17 3h84q22 0 22 -21q0 -14 -14.5 -37t-43 -45t-71.5 -37.5t-102 -15.5q-68 0 -115 24.5t-76 65.5
q-35 -48 -87.5 -69t-113.5 -21zM252 85q35 0 63.5 15t45 46.5t16.5 79.5v21l-100 -16q-60 -9 -88.5 -29t-28.5 -49q0 -22 13 -37.5t34 -23t45 -7.5zM511 305h215v4q0 58 -26.5 94t-80.5 36q-28 0 -52 -14t-39.5 -42.5t-16.5 -73.5v-4zM410 595q-16 0 -16 16q0 8 5 13l81 99
q10 11 17 14.5t20 3.5h100q19 0 19 -19q0 -7 -5 -12l-124 -102q-8 -7 -15.5 -10t-20.5 -3h-61z" />
    <glyph glyph-name="Oslashacute" unicode="&#x1fe;" horiz-adv-x="695" 
d="M347 -10q-89 0 -153 29.5t-100 91t-39 153.5q-1 43 -1 85t1 86q3 91 40 152t101.5 92t150.5 31t151 -31t102 -92t40 -152q2 -44 2 -86t-2 -85q-3 -92 -39 -153.5t-100.5 -91t-153.5 -29.5zM347 105q65 0 106 38.5t44 125.5q2 44 2 81.5t-2 80.5q-2 58 -21.5 94.5
t-52.5 53t-76 16.5q-42 0 -75 -16.5t-52.5 -53t-21.5 -94.5q-1 -43 -1 -80.5t1 -81.5q3 -87 44 -125.5t105 -38.5zM94 -65q-13 0 -18 11t2 24l471 780q2 4 7 9.5t15 5.5h30q12 0 17.5 -10t-2.5 -24l-472 -781q-2 -4 -7 -9.5t-16 -5.5h-27zM302 750q-16 0 -16 16q0 8 5 13
l81 99q10 11 17 14.5t20 3.5h107q19 0 19 -19q0 -7 -5 -12l-124 -102q-8 -7 -15.5 -10t-19.5 -3h-69z" />
    <glyph glyph-name="oslashacute" unicode="&#x1ff;" horiz-adv-x="592" 
d="M296 -10q-80 0 -134.5 28t-83 79t-32.5 119q-1 18 -1 44t1 44q4 69 33.5 119.5t84 78.5t132.5 28t132.5 -28t84 -78.5t33.5 -119.5q1 -18 1 -44t-1 -44q-4 -68 -32.5 -119t-83 -79t-134.5 -28zM296 89q53 0 82 33.5t32 98.5q1 15 1 39t-1 39q-3 65 -32 98.5t-82 33.5
t-82 -33.5t-32 -98.5q-1 -15 -1 -39t1 -39q3 -65 32 -98.5t82 -33.5zM69 -28q-8 0 -14 6t-6 14q0 3 0.5 6t3.5 8l420 526q3 4 8 9.5t15 5.5h26q8 0 14 -6t6 -14q0 -1 -0.5 -5t-3.5 -9l-420 -526q-3 -4 -8 -9.5t-15 -5.5h-26zM253 595q-16 0 -16 16q0 8 5 13l81 99
q10 11 17 14.5t20 3.5h100q19 0 19 -19q0 -7 -5 -12l-124 -102q-8 -7 -15.5 -10t-20.5 -3h-61z" />
    <glyph glyph-name="uni0218" unicode="&#x218;" horiz-adv-x="642" 
d="M321 -10q-93 0 -155.5 27.5t-95 72t-34.5 93.5q0 9 6 15t15 6h89q13 0 19.5 -5.5t11.5 -13.5q6 -19 23 -37.5t46.5 -30.5t74.5 -12q72 0 107.5 24t35.5 65q0 29 -19 46.5t-58.5 32t-104.5 30.5q-75 18 -125.5 43.5t-76 64.5t-25.5 99q0 58 31.5 103t90 71t139.5 26
q65 0 115 -17.5t83 -46t50.5 -61t18.5 -63.5q0 -8 -5.5 -14.5t-15.5 -6.5h-93q-8 0 -16 4t-13 15q-6 31 -39 53t-85 22q-54 0 -87 -20t-33 -62q0 -28 16.5 -46.5t53 -32.5t96.5 -30q85 -19 139 -44t79 -63.5t25 -97.5q0 -66 -35.5 -112.5t-99.5 -71.5t-149 -25zM248 -226
q-9 0 -13.5 6t-4.5 15l19 123q2 13 9.5 22.5t22.5 9.5h88q8 0 13 -5.5t5 -12.5t-2 -14l-47 -119q-4 -10 -11 -17.5t-21 -7.5h-58z" />
    <glyph glyph-name="uni0219" unicode="&#x219;" horiz-adv-x="532" 
d="M263 -10q-60 0 -102.5 14t-69.5 35t-40 42t-14 35q-1 11 6.5 17.5t16.5 6.5h79q4 0 7 -1t8 -6q13 -11 27.5 -23t34.5 -20.5t50 -8.5q39 0 65.5 15.5t26.5 44.5q0 21 -11.5 34t-42.5 23.5t-88 22.5q-56 13 -93 33t-55 50t-18 70q0 39 23.5 74.5t70 58.5t115.5 23
q54 0 94 -13.5t66.5 -33.5t40.5 -40.5t15 -35.5q1 -11 -6 -17.5t-16 -6.5h-74q-5 0 -9 2t-8 5q-11 10 -24 21.5t-31.5 19.5t-48.5 8q-38 0 -58 -16.5t-20 -41.5q0 -17 9.5 -29.5t38.5 -23.5t88 -23q67 -12 106.5 -35.5t56 -54t16.5 -67.5q0 -45 -26.5 -81t-78 -56.5
t-127.5 -20.5zM194 -226q-9 0 -13.5 6t-4.5 15l19 123q2 13 9.5 22.5t22.5 9.5h84q8 0 13 -5.5t5 -12.5t-3 -14l-46 -119q-4 -10 -11 -17.5t-22 -7.5h-53z" />
    <glyph glyph-name="uni021A" unicode="&#x21a;" horiz-adv-x="605" 
d="M256 0q-10 0 -17 7t-7 17v553h-185q-10 0 -17 7t-7 17v74q0 11 7 18t17 7h510q11 0 18 -7t7 -18v-74q0 -10 -7 -17t-18 -7h-184v-553q0 -10 -7 -17t-18 -7h-92zM227 -226q-9 0 -13.5 6t-4.5 15l19 123q2 13 9.5 22.5t22.5 9.5h88q8 0 13 -5.5t5 -12.5t-2 -14l-47 -119
q-4 -10 -11 -17.5t-21 -7.5h-58z" />
    <glyph glyph-name="uni021B" unicode="&#x21b;" horiz-adv-x="429" 
d="M301 0q-60 0 -101 21t-61 62.5t-20 103.5v227h-79q-10 0 -17 7t-7 18v57q0 10 7 17t17 7h79v166q0 10 6.5 17t17.5 7h81q10 0 17 -7t7 -17v-166h125q10 0 17 -7t7 -17v-57q0 -11 -7 -18t-17 -7h-125v-217q0 -41 14.5 -64t50.5 -23h69q10 0 17 -7t7 -17v-62q0 -10 -7 -17
t-17 -7h-81zM191 -226q-9 0 -13.5 6t-4.5 15l19 123q2 13 9.5 22.5t22.5 9.5h84q8 0 13 -5.5t5 -12.5t-3 -14l-46 -119q-4 -10 -11 -17.5t-22 -7.5h-53z" />
    <glyph glyph-name="uni0237" unicode="&#x237;" horiz-adv-x="356" 
d="M39 -190q-10 0 -17 7t-7 17v72q0 10 7 17t17 7h43q31 0 46 11t20 30.5t5 43.5v396h-107q-10 0 -17 7t-7 17v61q0 10 7 17t17 7h219q10 0 17 -7t7 -17v-481q0 -61 -21 -107t-64 -72t-109 -26h-56z" />
    <glyph glyph-name="uni02BC" unicode="&#x2bc;" horiz-adv-x="152" 
d="M18 619q-9 0 -13.5 6t-4.5 15l19 123q2 13 9.5 22.5t22.5 9.5h84q8 0 13 -5.5t5 -12.5t-3 -14l-46 -119q-4 -10 -11 -17.5t-22 -7.5h-53z" />
    <glyph glyph-name="circumflex" unicode="&#x2c6;" horiz-adv-x="459" 
d="M77 595q-15 0 -15 13q0 8 9 17l97 100q11 11 18.5 13.5t15.5 2.5h55q9 0 16.5 -2.5t17.5 -13.5l97 -100q9 -9 9 -17q0 -13 -15 -13h-36q-8 0 -16.5 1.5t-15.5 5.5l-84 53l-85 -53q-7 -4 -15.5 -5.5t-15.5 -1.5h-37z" />
    <glyph glyph-name="caron" unicode="&#x2c7;" horiz-adv-x="459" 
d="M202 595q-8 0 -15.5 3t-18.5 13l-97 100q-9 9 -9 17q0 13 15 13h37q7 0 15.5 -1.5t15.5 -5.5l85 -52l84 52q7 4 15.5 5.5t16.5 1.5h36q15 0 15 -13q0 -8 -9 -17l-97 -100q-10 -10 -17.5 -13t-16.5 -3h-55z" />
    <glyph glyph-name="breve" unicode="&#x2d8;" horiz-adv-x="400" 
d="M200 590q-48 0 -78 18.5t-43.5 48.5t-13.5 65q0 8 5 13.5t14 5.5h47q9 0 14 -5.5t5 -13.5q0 -23 10.5 -42t39.5 -19q30 0 40 19t10 42q0 8 5 13.5t14 5.5h47q9 0 14 -5.5t5 -13.5q0 -35 -13.5 -65t-43 -48.5t-78.5 -18.5z" />
    <glyph glyph-name="dotaccent" unicode="&#x2d9;" horiz-adv-x="251" 
d="M84 608q-10 0 -16 6t-6 16v82q0 10 6 16.5t16 6.5h82q10 0 16.5 -6.5t6.5 -16.5v-82q0 -10 -6.5 -16t-16.5 -6h-82z" />
    <glyph glyph-name="ring" unicode="&#x2da;" horiz-adv-x="300" 
d="M150 590q-36 0 -62 23.5t-26 59.5t26 59.5t62 23.5t62 -23.5t26 -59.5t-26 -59.5t-62 -23.5zM150 643q13 0 21.5 8.5t8.5 21.5t-8.5 21.5t-21.5 8.5t-21.5 -8.5t-8.5 -21.5t8.5 -21.5t21.5 -8.5z" />
    <glyph glyph-name="ogonek" unicode="&#x2db;" horiz-adv-x="309" 
d="M206 -220q-48 0 -81.5 19.5t-50 53.5t-16.5 78q0 45 16.5 79.5t50 53.5t81.5 19h17q10 0 17 -6.5t7 -17.5v-35q0 -10 -7 -17t-17 -7h-13q-31 0 -48 -20t-17 -49t17 -48.5t48 -19.5h13q10 0 17 -6.5t7 -17.5v-35q0 -10 -7 -17t-17 -7h-17z" />
    <glyph glyph-name="tilde" unicode="&#x2dc;" horiz-adv-x="431" 
d="M271 590q-26 0 -42 8.5t-29.5 17.5t-29.5 9q-13 0 -18.5 -7.5t-10.5 -15t-16 -7.5h-46q-7 0 -12 5t-5 12q0 15 5.5 33.5t17.5 35.5t30.5 27.5t43.5 10.5q27 0 43 -8.5t29.5 -17.5t29.5 -9q13 0 18.5 8t10.5 15.5t16 7.5h46q8 0 12.5 -5.5t4.5 -12.5q0 -15 -5.5 -33.5
t-17.5 -35.5t-30.5 -27.5t-44.5 -10.5z" />
    <glyph glyph-name="hungarumlaut" unicode="&#x2dd;" horiz-adv-x="500" 
d="M268 595q-16 0 -16 16q0 4 2 8t3 7l43 96q9 19 37 19h80q20 0 20 -19q0 -7 -6 -13l-88 -100q-12 -14 -32 -14h-43zM79 595q-16 0 -16 16q0 4 2 8t3 7l43 96q9 19 37 19h81q20 0 20 -19q0 -7 -6 -13l-89 -100q-12 -14 -32 -14h-43z" />
    <glyph glyph-name="gravecomb" unicode="&#x300;" 
d="M227 595q-12 0 -19.5 3t-15.5 10l-125 102q-5 5 -5 12q0 19 19 19h100q13 0 20.5 -3.5t16.5 -14.5l82 -99q5 -5 5 -13q0 -16 -16 -16h-62z" />
    <glyph glyph-name="acutecomb" unicode="&#x301;" 
d="M78 595q-16 0 -16 16q0 8 5 13l81 99q10 11 17 14.5t20 3.5h100q19 0 19 -19q0 -7 -5 -12l-124 -102q-8 -7 -15.5 -10t-20.5 -3h-61z" />
    <glyph glyph-name="uni0302" unicode="&#x302;" 
d="M77 595q-15 0 -15 13q0 8 9 17l97 100q11 11 18.5 13.5t15.5 2.5h55q9 0 16.5 -2.5t17.5 -13.5l97 -100q9 -9 9 -17q0 -13 -15 -13h-36q-8 0 -16.5 1.5t-15.5 5.5l-84 53l-85 -53q-7 -4 -15.5 -5.5t-15.5 -1.5h-37z" />
    <glyph glyph-name="tildecomb" unicode="&#x303;" 
d="M271 590q-26 0 -42 8.5t-29.5 17.5t-29.5 9q-13 0 -18.5 -7.5t-10.5 -15t-16 -7.5h-46q-7 0 -12 5t-5 12q0 15 5.5 33.5t17.5 35.5t30.5 27.5t43.5 10.5q27 0 43 -8.5t29.5 -17.5t29.5 -9q13 0 18.5 8t10.5 15.5t16 7.5h46q8 0 12.5 -5.5t4.5 -12.5q0 -15 -5.5 -33.5
t-17.5 -35.5t-30.5 -27.5t-44.5 -10.5z" />
    <glyph glyph-name="uni0304" unicode="&#x304;" 
d="M84 611q-10 0 -16 6t-6 16v51q0 10 6 16t16 6h251q10 0 16.5 -6t6.5 -16v-51q0 -10 -6.5 -16t-16.5 -6h-251z" />
    <glyph glyph-name="uni0306" unicode="&#x306;" 
d="M200 590q-48 0 -78 18.5t-43.5 48.5t-13.5 65q0 8 5 13.5t14 5.5h47q9 0 14 -5.5t5 -13.5q0 -23 10.5 -42t39.5 -19q30 0 40 19t10 42q0 8 5 13.5t14 5.5h47q9 0 14 -5.5t5 -13.5q0 -35 -13.5 -65t-43 -48.5t-78.5 -18.5z" />
    <glyph glyph-name="uni0307" unicode="&#x307;" 
d="M84 608q-10 0 -16 6t-6 16v82q0 10 6 16.5t16 6.5h82q10 0 16.5 -6.5t6.5 -16.5v-82q0 -10 -6.5 -16t-16.5 -6h-82z" />
    <glyph glyph-name="uni0308" unicode="&#x308;" 
d="M272 614q-10 0 -16 6t-6 16v73q0 10 6 16.5t16 6.5h73q10 0 16.5 -6.5t6.5 -16.5v-73q0 -10 -6.5 -16t-16.5 -6h-73zM84 614q-10 0 -16 6t-6 16v73q0 10 6 16.5t16 6.5h73q10 0 16.5 -6.5t6.5 -16.5v-73q0 -10 -6.5 -16t-16.5 -6h-73z" />
    <glyph glyph-name="uni030A" unicode="&#x30a;" 
d="M150 590q-36 0 -62 23.5t-26 59.5t26 59.5t62 23.5t62 -23.5t26 -59.5t-26 -59.5t-62 -23.5zM150 643q13 0 21.5 8.5t8.5 21.5t-8.5 21.5t-21.5 8.5t-21.5 -8.5t-8.5 -21.5t8.5 -21.5t21.5 -8.5z" />
    <glyph glyph-name="uni030B" unicode="&#x30b;" 
d="M268 595q-16 0 -16 16q0 4 2 8t3 7l43 96q9 19 37 19h80q20 0 20 -19q0 -7 -6 -13l-88 -100q-12 -14 -32 -14h-43zM79 595q-16 0 -16 16q0 4 2 8t3 7l43 96q9 19 37 19h81q20 0 20 -19q0 -7 -6 -13l-89 -100q-12 -14 -32 -14h-43z" />
    <glyph glyph-name="uni030C" unicode="&#x30c;" 
d="M202 595q-8 0 -15.5 3t-18.5 13l-97 100q-9 9 -9 17q0 13 15 13h37q7 0 15.5 -1.5t15.5 -5.5l85 -52l84 52q7 4 15.5 5.5t16.5 1.5h36q15 0 15 -13q0 -8 -9 -17l-97 -100q-10 -10 -17.5 -13t-16.5 -3h-55z" />
    <glyph glyph-name="uni0312" unicode="&#x312;" 
d="M258 595q-8 0 -13 5.5t-5 12.5t3 14l46 119q5 10 12 17.5t21 7.5h53q9 0 14 -6t4 -15l-19 -123q-1 -13 -9 -22.5t-23 -9.5h-84z" />
    <glyph glyph-name="uni0326" unicode="&#x326;" 
d="M82 -226q-9 0 -13.5 6t-4.5 15l19 123q2 13 9.5 22.5t22.5 9.5h84q8 0 13 -5.5t5 -12.5t-3 -14l-46 -119q-4 -10 -11 -17.5t-22 -7.5h-53z" />
    <glyph glyph-name="uni0327" unicode="&#x327;" 
d="M147 -220q-28 1 -49.5 10t-31 21t0.5 20l17 15q9 8 15.5 4.5t17 -10t30.5 -6.5q15 0 26 9.5t11 24.5q0 14 -10.5 23t-26.5 9q-13 0 -23.5 -3.5t-18.5 -5t-16 6.5l-18 18q-6 7 -4 14.5t6 16.5l35 80h62l-40 -80q6 3 16.5 5t18.5 2q35 0 56.5 -24t21.5 -61q0 -38 -25 -64
t-71 -25z" />
    <glyph glyph-name="uni0328" unicode="&#x328;" 
d="M206 -220q-48 0 -81.5 19.5t-50 53.5t-16.5 78q0 45 16.5 79.5t50 53.5t81.5 19h17q10 0 17 -6.5t7 -17.5v-35q0 -10 -7 -17t-17 -7h-13q-31 0 -48 -20t-17 -49t17 -48.5t48 -19.5h13q10 0 17 -6.5t7 -17.5v-35q0 -10 -7 -17t-17 -7h-17z" />
    <glyph glyph-name="uni0335" unicode="&#x335;" 
d="M74 255q-10 0 -17 6.5t-7 17.5v36q0 10 7 17t17 7h282q10 0 17 -7t7 -17v-36q0 -11 -7 -17.5t-17 -6.5h-282z" />
    <glyph glyph-name="uni0337" unicode="&#x337;" 
d="M38 -38q-8 0 -14 6t-6 14q0 3 0.5 6t3.5 8l420 526q3 4 8 9.5t15 5.5h26q8 0 14 -6t6 -14q0 -1 -0.5 -5t-3.5 -9l-420 -526q-3 -4 -8 -9.5t-15 -5.5h-26z" />
    <glyph glyph-name="uni0338" unicode="&#x338;" 
d="M0 -64q-13 0 -18 11t2 24l471 780q2 4 7 9.5t15 5.5h30q12 0 17.5 -10t-2.5 -24l-472 -781q-2 -4 -7 -9.5t-16 -5.5h-27z" />
    <glyph glyph-name="uni0400" unicode="&#x400;" horiz-adv-x="622" 
d="M102 0q-10 0 -17 7t-7 17v651q0 11 7 18t17 7h440q11 0 18 -7t7 -18v-66q0 -10 -7 -17t-18 -7h-329v-177h307q11 0 18 -6.5t7 -17.5v-62q0 -11 -7 -17.5t-18 -6.5h-307v-183h337q11 0 18 -7t7 -18v-66q0 -10 -7 -17t-18 -7h-448zM313 750q-13 0 -20.5 3t-15.5 10
l-124 102q-5 5 -5 12q0 19 19 19h107q13 0 20.5 -3.5t16.5 -14.5l82 -99q5 -5 5 -13q0 -16 -16 -16h-69z" />
    <glyph glyph-name="uni0401" unicode="&#x401;" horiz-adv-x="622" 
d="M102 0q-10 0 -17 7t-7 17v651q0 11 7 18t17 7h440q11 0 18 -7t7 -18v-66q0 -10 -7 -17t-18 -7h-329v-177h307q11 0 18 -6.5t7 -17.5v-62q0 -11 -7 -17.5t-18 -6.5h-307v-183h337q11 0 18 -7t7 -18v-66q0 -10 -7 -17t-18 -7h-448zM388 794q-10 0 -16 6t-6 16v73
q0 10 6 16.5t16 6.5h73q10 0 16.5 -6.5t6.5 -16.5v-73q0 -10 -6.5 -16t-16.5 -6h-73zM200 794q-10 0 -16 6t-6 16v73q0 10 6 16.5t16 6.5h73q10 0 16.5 -6.5t6.5 -16.5v-73q0 -10 -6.5 -16t-16.5 -6h-73z" />
    <glyph glyph-name="uni0402" unicode="&#x402;" horiz-adv-x="742" 
d="M199 0q-10 0 -17 7t-7 17v568h-130q-10 0 -16 6.5t-6 16.5v62q0 11 6 17t16 6h488q10 0 16.5 -6t6.5 -17v-62q0 -10 -6.5 -16.5t-16.5 -6.5h-219v-173q15 18 42.5 29t60.5 16.5t62 5.5q115 0 171.5 -55.5t56.5 -163.5v-33q0 -67 -29.5 -116.5t-88.5 -75.5t-149 -26h-11
q-10 0 -17 7t-7 17v61q0 10 7 17t17 7h11q50 0 77.5 14.5t39 39t11.5 55.5v21q0 53 -28.5 78t-91.5 25q-22 0 -46 -4t-44 -13.5t-32 -25.5t-12 -41v-234q0 -10 -7 -17t-17 -7h-91z" />
    <glyph glyph-name="uni0403" unicode="&#x403;" horiz-adv-x="543" 
d="M102 0q-10 0 -17 7t-7 17v651q0 11 7 18t17 7h408q11 0 18 -7t7 -18v-70q0 -10 -7 -17t-18 -7h-293v-557q0 -10 -6.5 -17t-17.5 -7h-91zM284 750q-16 0 -16 16q0 8 5 13l81 99q10 11 17 14.5t20 3.5h107q19 0 19 -19q0 -7 -5 -12l-124 -102q-8 -7 -15.5 -10t-19.5 -3h-69
z" />
    <glyph glyph-name="uni0404" unicode="&#x404;" horiz-adv-x="664" 
d="M340 -10q-83 0 -147 30t-101 94t-41 168q0 11 -0.5 29t-0.5 38.5t0.5 38.5t0.5 30q4 103 41.5 167.5t101 94.5t146.5 30q76 0 136 -22t96.5 -63.5t42.5 -100.5q1 -9 -5.5 -15t-15.5 -6h-92q-12 0 -17 4.5t-9 14.5q-9 30 -41.5 51.5t-92.5 21.5q-70 0 -109 -41.5
t-39 -131.5v-18h219q11 0 17.5 -7t6.5 -18v-57q0 -11 -6.5 -18.5t-17.5 -7.5h-219v-19q0 -82 39 -127.5t109 -45.5q60 0 92.5 21t43.5 52q5 11 10.5 15t15.5 4h92q9 0 15.5 -6t5.5 -15q-6 -59 -44 -100t-98 -63t-135 -22z" />
    <glyph glyph-name="uni0405" unicode="&#x405;" horiz-adv-x="642" 
d="M321 -10q-93 0 -155.5 27.5t-95 72t-34.5 93.5q0 9 6 15t15 6h89q13 0 19.5 -5.5t11.5 -13.5q6 -19 23 -37.5t46.5 -30.5t74.5 -12q72 0 107.5 24t35.5 65q0 29 -19 46.5t-58.5 32t-104.5 30.5q-75 18 -125.5 43.5t-76 64.5t-25.5 99q0 58 31.5 103t90 71t139.5 26
q65 0 115 -17.5t83 -46t50.5 -61t18.5 -63.5q0 -8 -5.5 -14.5t-15.5 -6.5h-93q-8 0 -16 4t-13 15q-6 31 -39 53t-85 22q-54 0 -87 -20t-33 -62q0 -28 16.5 -46.5t53 -32.5t96.5 -30q85 -19 139 -44t79 -63.5t25 -97.5q0 -66 -35.5 -112.5t-99.5 -71.5t-149 -25z" />
    <glyph glyph-name="uni0406" unicode="&#x406;" horiz-adv-x="299" 
d="M102 0q-10 0 -17 7t-7 17v652q0 10 7 17t17 7h94q11 0 17.5 -7t6.5 -17v-652q0 -10 -6.5 -17t-17.5 -7h-94z" />
    <glyph glyph-name="uni0407" unicode="&#x407;" horiz-adv-x="299" 
d="M102 0q-10 0 -17 7t-7 17v652q0 10 7 17t17 7h94q11 0 17.5 -7t6.5 -17v-652q0 -10 -6.5 -17t-17.5 -7h-94zM206 794q-10 0 -16 6t-6 16v73q0 10 6 16.5t16 6.5h73q10 0 16.5 -6.5t6.5 -16.5v-73q0 -10 -6.5 -16t-16.5 -6h-73zM18 794q-10 0 -16 6t-6 16v73q0 10 6 16.5
t16 6.5h73q10 0 16.5 -6.5t6.5 -16.5v-73q0 -10 -6.5 -16t-16.5 -6h-73z" />
    <glyph glyph-name="uni0408" unicode="&#x408;" horiz-adv-x="652" 
d="M304 -10q-54 0 -102.5 13.5t-86.5 41.5t-60.5 69t-23.5 97q0 9 6 15.5t15 6.5h95q13 0 19.5 -7t10.5 -19q5 -36 23 -58.5t45.5 -33t61.5 -10.5q63 0 96.5 41t33.5 114v322h-339q-11 0 -17.5 7t-6.5 17v70q0 10 6.5 17t17.5 7h457q11 0 18 -7t7 -18v-419q0 -83 -34.5 -143
t-96 -91.5t-145.5 -31.5z" />
    <glyph glyph-name="uni0409" unicode="&#x409;" horiz-adv-x="1034" 
d="M51 1q-10 -1 -17.5 6.5t-7.5 17.5v75q0 21 23 24q30 5 51.5 28t36 65t21.5 104.5t7 145.5v209q0 10 7 17t17 7h425q10 0 17 -7t7 -17v-229h111q119 0 184 -55.5t65 -164.5q0 -63 -27.5 -115t-83 -82t-138.5 -30h-226q-10 0 -17 7t-7 17v551h-199v-126q0 -120 -12.5 -205
t-40.5 -137.5t-76 -78t-120 -27.5zM638 111h105q54 0 83 32.5t29 84.5q0 54 -28.5 81t-83.5 27h-105v-225z" />
    <glyph glyph-name="uni040A" unicode="&#x40a;" horiz-adv-x="1035" 
d="M102 0q-10 0 -17 6.5t-7 17.5v651q0 11 7 18t17 7h91q11 0 17.5 -7t6.5 -18v-258h283v258q0 11 7 18t17 7h91q11 0 17.5 -7t6.5 -17v-229h112q118 0 183.5 -55.5t65.5 -164.5q0 -63 -28 -115t-83.5 -82t-137.5 -30h-227q-10 0 -17 7t-7 17v268h-283v-268q0 -10 -6.5 -17
t-17.5 -7h-91zM639 111h106q53 0 82.5 32.5t29.5 84.5q0 54 -29 81t-83 27h-106v-225z" />
    <glyph glyph-name="uni040B" unicode="&#x40b;" horiz-adv-x="758" 
d="M199 0q-10 0 -17 7t-7 17v568h-130q-10 0 -16 6.5t-6 16.5v62q0 11 6 17t16 6h488q10 0 16.5 -6t6.5 -17v-62q0 -10 -6.5 -16.5t-16.5 -6.5h-219v-181q15 18 43 29t60.5 16.5t61.5 5.5q115 0 171.5 -55.5t56.5 -163.5v-219q0 -10 -7 -17t-18 -7h-90q-10 0 -17 7t-7 17
v207q0 52 -28.5 77t-91.5 25q-19 0 -42.5 -3t-44.5 -12t-34 -25.5t-13 -42.5v-226q0 -10 -7 -17t-17 -7h-91z" />
    <glyph glyph-name="uni040C" unicode="&#x40c;" horiz-adv-x="670" 
d="M102 0q-10 0 -17 6.5t-7 17.5v651q0 11 7 18t17 7h91q11 0 17.5 -7t6.5 -18v-258h87l163 265q5 8 13.5 13t22.5 5h99q10 0 15.5 -6t5.5 -15q0 -5 -4 -12l-189 -305l207 -328q3 -3 3 -11q0 -9 -6.5 -16t-16.5 -7h-103q-13 0 -19.5 6t-10.5 11l-175 275h-92v-268
q0 -10 -6.5 -17t-17.5 -7h-91zM281 750q-16 0 -16 16q0 8 5 13l81 99q10 11 17 14.5t20 3.5h107q19 0 19 -19q0 -7 -5 -12l-124 -102q-8 -7 -15.5 -10t-19.5 -3h-69z" />
    <glyph glyph-name="uni040D" unicode="&#x40d;" horiz-adv-x="760" 
d="M102 0q-10 0 -17 7t-7 18v650q0 11 7 18t18 7h90q11 0 17.5 -7t6.5 -18v-459l329 468q4 5 11 10.5t18 5.5h83q10 0 17 -7t7 -18v-651q0 -10 -7 -17t-17 -7h-90q-11 0 -18 7t-7 17v450l-328 -458q-3 -4 -10 -10t-19 -6h-84zM362 750q-13 0 -20.5 3t-15.5 10l-124 102
q-5 5 -5 12q0 19 19 19h107q13 0 20.5 -3.5t16.5 -14.5l82 -99q5 -5 5 -13q0 -16 -16 -16h-69z" />
    <glyph glyph-name="uni040E" unicode="&#x40e;" horiz-adv-x="619" 
d="M126 0q-10 0 -17 7t-7 17v74q0 11 7 18t17 7h37q29 0 50 12.5t39 40t36 70.5l191 435q4 10 11 14.5t16 4.5h93q8 0 14.5 -6t6.5 -14q0 -5 -1 -9t-3 -8l-201 -459q-25 -55 -47 -93.5t-48 -63t-61.5 -36t-85.5 -11.5h-47zM281 175l-267 493q-3 6 -3 10q0 9 7 15.5t15 6.5
h98q9 0 15.5 -4.5t10.5 -14.5l197 -368zM321 740q-62 0 -98.5 19t-52.5 49.5t-16 65.5q0 8 5 13.5t14 5.5h58q9 0 14 -5.5t5 -13.5q0 -14 5.5 -27t21 -21.5t43.5 -8.5q30 0 45 8.5t20.5 21.5t5.5 27q0 8 5 13.5t14 5.5h58q9 0 14 -5.5t5 -13.5q0 -35 -16 -65.5t-52 -49.5
t-98 -19z" />
    <glyph glyph-name="uni040F" unicode="&#x40f;" horiz-adv-x="729" 
d="M319 -140q-11 0 -17.5 7t-6.5 17v116h-193q-10 0 -17 7t-7 17v652q0 11 7 17.5t17 6.5h91q11 0 17.5 -7t6.5 -17v-551h295v551q0 10 7 17t17 7h90q11 0 18 -7t7 -17v-652q0 -10 -7 -17t-18 -7h-192v-116q0 -10 -7 -17t-18 -7h-90z" />
    <glyph glyph-name="uni0410" unicode="&#x410;" horiz-adv-x="693" 
d="M35 0q-8 0 -14.5 6t-6.5 15q0 4 2 9l241 645q3 10 11.5 17.5t23.5 7.5h109q15 0 23 -7.5t12 -17.5l241 -645q1 -5 1 -9q0 -9 -6 -15t-14 -6h-87q-14 0 -20.5 6.5t-8.5 12.5l-47 122h-297l-47 -122q-2 -6 -8.5 -12.5t-20.5 -6.5h-87zM233 256h227l-114 309z" />
    <glyph glyph-name="uni0411" unicode="&#x411;" horiz-adv-x="648" 
d="M102 0q-10 0 -17 7t-7 17v651q0 11 7 18t17 7h458q11 0 17.5 -7t6.5 -18v-70q0 -10 -6.5 -17t-17.5 -7h-343v-160h169q113 0 177 -56t64 -152q0 -41 -15.5 -79.5t-45.5 -68.5t-75 -47.5t-105 -17.5h-284zM217 106h155q36 0 61 15t38 40t13 54q0 44 -28 73t-84 29h-155
v-211z" />
    <glyph glyph-name="uni0412" unicode="&#x412;" horiz-adv-x="686" 
d="M102 0q-10 0 -17 7t-7 17v651q0 11 7 18t17 7h290q81 0 132 -24.5t75.5 -67.5t24.5 -100q0 -38 -13.5 -66.5t-33 -46.5t-38.5 -28q39 -18 69 -60t30 -100q0 -60 -27 -107t-80 -73.5t-131 -26.5h-298zM217 106h167q54 0 82 29.5t28 71.5q0 44 -28.5 73t-81.5 29h-167v-203
zM217 413h157q53 0 79.5 25.5t26.5 66.5q0 42 -26.5 66t-79.5 24h-157v-182z" />
    <glyph glyph-name="uni0413" unicode="&#x413;" horiz-adv-x="543" 
d="M102 0q-10 0 -17 7t-7 17v651q0 11 7 18t17 7h408q11 0 18 -7t7 -18v-70q0 -10 -7 -17t-18 -7h-293v-557q0 -10 -6.5 -17t-17.5 -7h-91z" />
    <glyph glyph-name="uni0414" unicode="&#x414;" horiz-adv-x="745" 
d="M50 -139q-10 0 -17 6.5t-7 17.5v216q0 10 7 17t17 7h20q24 0 41 22.5t28 66t16.5 107.5t5.5 146v209q0 10 6.5 17t17.5 7h429q11 0 18 -7t7 -18v-550h48q11 0 18 -7t7 -17v-216q0 -11 -7 -17.5t-18 -6.5h-90q-11 0 -17.5 6.5t-6.5 17.5v115h-408v-115q0 -11 -7 -17.5
t-18 -6.5h-90zM240 125h260v450h-205v-126q0 -124 -14 -202.5t-41 -121.5z" />
    <glyph glyph-name="uni0415" unicode="&#x415;" horiz-adv-x="622" 
d="M102 0q-10 0 -17 7t-7 17v651q0 11 7 18t17 7h440q11 0 18 -7t7 -18v-66q0 -10 -7 -17t-18 -7h-329v-177h307q11 0 18 -6.5t7 -17.5v-62q0 -11 -7 -17.5t-18 -6.5h-307v-183h337q11 0 18 -7t7 -18v-66q0 -10 -7 -17t-18 -7h-448z" />
    <glyph glyph-name="uni0416" unicode="&#x416;" horiz-adv-x="1030" 
d="M53 0q-9 0 -15.5 7t-6.5 16q0 8 2 11l208 328l-189 305q-4 7 -4 12q0 9 5 15t16 6h98q14 0 22.5 -5t13.5 -13l163 -266h81v260q0 10 7 17t17 7h87q11 0 17.5 -7t6.5 -17v-260h81l163 266q5 8 13.5 13t22.5 5h99q10 0 15.5 -6t5.5 -15q0 -5 -4 -12l-189 -305l208 -328
q2 -3 2 -11q0 -9 -6.5 -16t-16.5 -7h-102q-14 0 -20.5 6t-10.5 11l-174 275h-87v-269q0 -10 -6.5 -16.5t-17.5 -6.5h-87q-10 0 -17 6.5t-7 17.5v268h-87l-174 -275q-3 -5 -9.5 -11t-20.5 -6h-103z" />
    <glyph glyph-name="uni0417" unicode="&#x417;" horiz-adv-x="646" 
d="M315 -10q-69 0 -120 15.5t-84 41.5t-51.5 59.5t-21.5 69.5q-1 9 5.5 14.5t15.5 5.5h90q10 0 17 -4.5t12 -15.5q12 -32 45 -52t89 -20q42 0 74 12t51 34.5t19 53.5q0 49 -36 75t-99 26h-72q-11 0 -17.5 7.5t-6.5 17.5v58q0 11 6.5 18t17.5 7h69q52 0 84.5 22t32.5 70
q0 28 -15.5 48t-42.5 31t-62 11q-53 0 -87 -18t-42 -55q-4 -10 -10 -14.5t-16 -4.5h-93q-9 0 -15.5 6t-5.5 15q3 37 20.5 70.5t50.5 59.5t82.5 41t117.5 15q84 0 141 -27.5t87.5 -71t30.5 -95.5q0 -27 -7 -54.5t-24.5 -51.5t-47.5 -42q36 -18 58.5 -44.5t33 -58.5t10.5 -65
q0 -63 -34.5 -110t-98.5 -73.5t-151 -26.5z" />
    <glyph glyph-name="uni0418" unicode="&#x418;" horiz-adv-x="760" 
d="M102 0q-10 0 -17 7t-7 18v650q0 11 7 18t18 7h90q11 0 17.5 -7t6.5 -18v-459l329 468q4 5 11 10.5t18 5.5h83q10 0 17 -7t7 -18v-651q0 -10 -7 -17t-17 -7h-90q-11 0 -18 7t-7 17v450l-328 -458q-3 -4 -10 -10t-19 -6h-84z" />
    <glyph glyph-name="uni0419" unicode="&#x419;" horiz-adv-x="760" 
d="M102 0q-10 0 -17 7t-7 18v650q0 11 7 18t18 7h90q11 0 17.5 -7t6.5 -18v-459l329 468q4 5 11 10.5t18 5.5h83q10 0 17 -7t7 -18v-651q0 -10 -7 -17t-17 -7h-90q-11 0 -18 7t-7 17v450l-328 -458q-3 -4 -10 -10t-19 -6h-84zM381 740q-62 0 -98.5 19t-52.5 49.5t-16 65.5
q0 8 5 13.5t14 5.5h58q9 0 14 -5.5t5 -13.5q0 -14 5.5 -27t21 -21.5t43.5 -8.5q30 0 45 8.5t20.5 21.5t5.5 27q0 8 5 13.5t14 5.5h58q9 0 14 -5.5t5 -13.5q0 -35 -16 -65.5t-52 -49.5t-98 -19z" />
    <glyph glyph-name="uni041A" unicode="&#x41a;" horiz-adv-x="670" 
d="M102 0q-10 0 -17 6.5t-7 17.5v651q0 11 7 18t17 7h91q11 0 17.5 -7t6.5 -18v-258h87l163 265q5 8 13.5 13t22.5 5h99q10 0 15.5 -6t5.5 -15q0 -5 -4 -12l-189 -305l207 -328q3 -3 3 -11q0 -9 -6.5 -16t-16.5 -7h-103q-13 0 -19.5 6t-10.5 11l-175 275h-92v-268
q0 -10 -6.5 -17t-17.5 -7h-91z" />
    <glyph glyph-name="uni041B" unicode="&#x41b;" horiz-adv-x="734" 
d="M541 0q-10 0 -17 7t-7 17v551h-217v-126q0 -120 -12.5 -205t-40.5 -137.5t-76 -78t-120 -27.5q-10 -1 -17.5 6.5t-7.5 17.5v75q0 21 23 24q30 5 51.5 28t36 65t21.5 104.5t7 145.5v209q0 10 7 17t17 7h442q11 0 18 -7t7 -18v-651q0 -10 -7 -17t-18 -7h-90z" />
    <glyph glyph-name="uni041C" unicode="&#x41c;" horiz-adv-x="811" 
d="M103 0q-11 0 -18 7t-7 17v651q0 11 7 18t18 7h79q14 0 21 -7.5t9 -11.5l193 -360l195 360q2 4 9 11.5t21 7.5h78q11 0 18 -7t7 -18v-651q0 -10 -7 -17t-18 -7h-84q-11 0 -17.5 7t-6.5 17v433l-140 -267q-5 -9 -13 -15.5t-21 -6.5h-41q-14 0 -21.5 6.5t-12.5 15.5
l-140 267v-433q0 -10 -7 -17t-17 -7h-84z" />
    <glyph glyph-name="uni041D" unicode="&#x41d;" horiz-adv-x="729" 
d="M102 0q-10 0 -17 6.5t-7 17.5v651q0 11 7 18t17 7h91q11 0 17.5 -7t6.5 -18v-258h295v258q0 11 7 18t17 7h90q11 0 18 -7t7 -18v-651q0 -10 -7 -17t-18 -7h-90q-10 0 -17 7t-7 17v268h-295v-268q0 -10 -6.5 -17t-17.5 -7h-91z" />
    <glyph glyph-name="uni041E" unicode="&#x41e;" horiz-adv-x="695" 
d="M347 -10q-89 0 -153 29.5t-100 91t-39 153.5q-1 43 -1 85t1 86q3 91 40 152t101.5 92t150.5 31t151 -31t102 -92t40 -152q2 -44 2 -86t-2 -85q-3 -92 -39 -153.5t-100.5 -91t-153.5 -29.5zM347 105q65 0 106 38.5t44 125.5q2 44 2 81.5t-2 80.5q-2 58 -21.5 94.5
t-52.5 53t-76 16.5q-42 0 -75 -16.5t-52.5 -53t-21.5 -94.5q-1 -43 -1 -80.5t1 -81.5q3 -87 44 -125.5t105 -38.5z" />
    <glyph glyph-name="uni041F" unicode="&#x41f;" horiz-adv-x="729" 
d="M102 0q-10 0 -17 6.5t-7 17.5v651q0 11 7 18t17 7h524q11 0 18 -7t7 -18v-651q0 -10 -7 -17t-18 -7h-90q-10 0 -17 7t-7 17v551h-295v-551q0 -10 -6.5 -17t-17.5 -7h-91z" />
    <glyph glyph-name="uni0420" unicode="&#x420;" horiz-adv-x="659" 
d="M102 0q-10 0 -17 7t-7 17v651q0 11 7 18t17 7h268q78 0 136 -24.5t90 -74t32 -123.5q0 -75 -32 -123.5t-90 -72.5t-136 -24h-149v-234q0 -10 -6.5 -17t-17.5 -7h-95zM219 369h146q58 0 89 27.5t31 81.5q0 50 -29 80.5t-91 30.5h-146v-220z" />
    <glyph glyph-name="uni0421" unicode="&#x421;" horiz-adv-x="684" 
d="M348 -10q-93 0 -157.5 32.5t-98.5 93t-38 145.5q-1 41 -1 88t1 90q4 84 38.5 145t99 93.5t156.5 32.5q68 0 122 -18t92 -49.5t59 -73.5t22 -91q1 -9 -5.5 -15t-15.5 -6h-95q-11 0 -18 5.5t-10 18.5q-16 66 -55 90t-97 24q-67 0 -107 -37.5t-43 -123.5q-3 -82 0 -168
t43 -123.5t107 -37.5q58 0 97.5 24.5t54.5 89.5q3 14 10 19t18 5h95q9 0 15.5 -6t5.5 -15q-1 -49 -22 -91t-59 -73.5t-92 -49.5t-122 -18z" />
    <glyph glyph-name="uni0422" unicode="&#x422;" horiz-adv-x="605" 
d="M256 0q-10 0 -17 7t-7 17v553h-185q-10 0 -17 7t-7 17v74q0 11 7 18t17 7h510q11 0 18 -7t7 -18v-74q0 -10 -7 -17t-18 -7h-184v-553q0 -10 -7 -17t-18 -7h-92z" />
    <glyph glyph-name="uni0423" unicode="&#x423;" horiz-adv-x="619" 
d="M126 0q-10 0 -17 7t-7 17v74q0 11 7 18t17 7h37q29 0 50 12.5t39 40t36 70.5l191 435q4 10 11 14.5t16 4.5h93q8 0 14.5 -6t6.5 -14q0 -5 -1 -9t-3 -8l-201 -459q-25 -55 -47 -93.5t-48 -63t-61.5 -36t-85.5 -11.5h-47zM281 175l-267 493q-3 6 -3 10q0 9 7 15.5t15 6.5
h98q9 0 15.5 -4.5t10.5 -14.5l197 -368z" />
    <glyph glyph-name="uni0424" unicode="&#x424;" horiz-adv-x="892" 
d="M401 -32q-11 0 -17.5 7t-6.5 17v74q-149 0 -230 65.5t-92 196.5q-1 9 -1 22.5t0.5 27t0.5 22.5q5 87 45 145.5t111 88t166 29.5v63q0 11 6.5 17.5t17.5 6.5h90q11 0 18 -6.5t7 -17.5v-63q95 0 165.5 -29.5t111 -88t44.5 -145.5q2 -21 2 -36t-2 -36q-10 -131 -91 -196.5
t-230 -65.5v-74q0 -10 -7 -17t-18 -7h-90zM377 181v368q-81 0 -127 -36.5t-53 -116.5v-31v-32q5 -79 51.5 -115.5t128.5 -36.5zM515 181q82 0 129 36.5t51 115.5q1 9 1 20.5v23t-1 19.5q-8 80 -53.5 116.5t-126.5 36.5v-368z" />
    <glyph glyph-name="uni0425" unicode="&#x425;" horiz-adv-x="662" 
d="M39 0q-9 0 -15 6t-6 15q0 3 1 6l2 6l224 324l-210 310q-3 6 -3 12q0 9 6 15t15 6h102q12 0 19 -6t12 -13l147 -216l148 216q4 7 11.5 13t19.5 6h97q9 0 15 -6t6 -15q0 -6 -4 -12l-209 -310l224 -324q2 -3 3 -6t1 -6q0 -9 -6.5 -15t-14.5 -6h-106q-12 0 -19 6t-11 12
l-160 226l-157 -226q-4 -6 -11 -12t-20 -6h-101z" />
    <glyph glyph-name="uni0426" unicode="&#x426;" horiz-adv-x="757" 
d="M609 -140q-11 0 -17.5 7t-6.5 17v116h-483q-10 0 -17 7t-7 18v651q0 11 7 17.5t17 6.5h91q11 0 17.5 -7t6.5 -17v-551h295v551q0 10 7 17t17 7h90q11 0 18 -7t7 -17v-551h48q11 0 18 -7t7 -17v-217q0 -10 -7 -17t-18 -7h-90z" />
    <glyph glyph-name="uni0427" unicode="&#x427;" horiz-adv-x="676" 
d="M480 0q-11 0 -17.5 7t-6.5 17v236q-16 -15 -42.5 -25t-58 -15t-61.5 -5q-123 0 -183 59.5t-60 176.5v225q0 10 7 17t17 7h90q11 0 18 -7t7 -17v-218q0 -59 30 -87t101 -28q20 0 43 3.5t44 13t34.5 25.5t13.5 40v251q0 10 6.5 17t17.5 7h90q11 0 18 -7t7 -17v-652
q0 -10 -7 -17t-18 -7h-90z" />
    <glyph glyph-name="uni0428" unicode="&#x428;" horiz-adv-x="973" 
d="M102 0q-10 0 -17 7t-7 17v652q0 11 7 17.5t17 6.5h91q11 0 17.5 -7t6.5 -17v-551h200v551q0 10 7 17t17 7h90q11 0 18 -7t7 -17v-551h200v551q0 10 6.5 17t17.5 7h90q11 0 17.5 -7t6.5 -17v-652q0 -10 -6.5 -17t-17.5 -7h-768z" />
    <glyph glyph-name="uni0429" unicode="&#x429;" horiz-adv-x="1000" 
d="M852 -140q-10 0 -17 7t-7 17v116h-726q-10 0 -17 7t-7 17v652q0 11 7 17.5t17 6.5h91q11 0 17.5 -7t6.5 -17v-551h200v551q0 10 7 17t17 7h90q11 0 18 -7t7 -17v-551h200v551q0 10 6.5 17t17.5 7h90q11 0 17.5 -7t6.5 -17v-551h48q11 0 18 -7t7 -17v-217q0 -10 -7 -17
t-18 -7h-90z" />
    <glyph glyph-name="uni042A" unicode="&#x42a;" horiz-adv-x="739" 
d="M217 0q-11 0 -17.5 7t-6.5 17v561h-146q-10 0 -17 7t-7 17v66q0 11 7 18t17 7h261q10 0 17 -7t7 -17v-229h123q119 0 184 -55.5t65 -164.5q0 -63 -28 -115t-83.5 -82t-137.5 -30h-238zM332 111h117q54 0 83 32.5t29 84.5q0 54 -28.5 81t-83.5 27h-117v-225z" />
    <glyph glyph-name="uni042B" unicode="&#x42b;" horiz-adv-x="884" 
d="M102 0q-10 0 -17 7t-7 17v652q0 10 7 17t17 7h91q11 0 17.5 -7t6.5 -17v-229h111q119 0 184 -55.5t65 -164.5q0 -63 -27.5 -115t-83 -82t-138.5 -30h-226zM217 111h106q53 0 82 32.5t29 84.5q0 54 -28.5 81t-82.5 27h-106v-225zM687 0q-10 0 -17 7t-7 17v652q0 10 7 17
t17 7h94q11 0 17.5 -7t6.5 -17v-652q0 -10 -6.5 -17t-17.5 -7h-94z" />
    <glyph glyph-name="uni042C" unicode="&#x42c;" horiz-adv-x="631" 
d="M102 0q-10 0 -17 7t-7 17v652q0 10 7 17t17 7h91q11 0 17.5 -7t6.5 -17v-229h129q119 0 184 -55.5t65 -164.5q0 -63 -28 -115t-83 -82t-138 -30h-244zM217 111h123q54 0 83 32.5t29 84.5q0 54 -28.5 81t-83.5 27h-123v-225z" />
    <glyph glyph-name="uni042D" unicode="&#x42d;" horiz-adv-x="666" 
d="M323 -10q-75 0 -135.5 22.5t-97.5 64t-44 98.5q-1 9 5.5 15t15.5 6h92q10 0 15.5 -4.5t10.5 -14.5q11 -31 44 -52t92 -21q70 0 109 45.5t39 127.5v19h-219q-10 0 -17 7.5t-7 18.5v57q0 11 7 18t17 7h219v18q0 90 -39 131.5t-109 41.5q-59 0 -92 -21.5t-41 -51.5
q-5 -10 -10 -14.5t-17 -4.5h-92q-9 0 -15.5 6t-5.5 15q7 60 44 101t96.5 63t134.5 22q83 0 147 -30t101 -94.5t41 -167.5q1 -27 1 -48v-41t-1 -47q-4 -104 -41 -168t-100.5 -94t-147.5 -30z" />
    <glyph glyph-name="uni042E" unicode="&#x42e;" horiz-adv-x="994" 
d="M646 -10q-71 0 -124.5 19.5t-89 54.5t-54.5 83.5t-23 107.5q-1 10 -1.5 19t-0.5 18h-136v-268q0 -10 -6.5 -17t-17.5 -7h-91q-10 0 -17 6.5t-7 17.5v652q0 10 7 17t17 7h91q11 0 17.5 -7t6.5 -17v-259h137q0 7 0.5 15.5t0.5 16.5q5 55 24 103t54.5 83t88.5 55t124 20
q74 0 128 -20.5t90 -57.5t54 -87.5t21 -109.5q2 -44 2 -86t-2 -85q-3 -61 -21.5 -111t-54 -86.5t-89.5 -56.5t-128 -20zM646 105q43 0 76 16t52.5 51.5t21.5 93.5q2 44 2 84.5t-2 83.5q-2 58 -21.5 93.5t-52.5 51.5t-76 16q-41 0 -74.5 -16t-53 -51.5t-21.5 -93.5
q-1 -43 -1 -83.5t1 -84.5q2 -58 21.5 -93.5t52.5 -51.5t75 -16z" />
    <glyph glyph-name="uni042F" unicode="&#x42f;" horiz-adv-x="681" 
d="M488 0q-10 0 -17.5 7t-7.5 17v229h-147q-70 0 -123 26.5t-82 76t-29 118.5q0 62 28 113t83.5 82t137.5 31h247q11 0 17.5 -7t6.5 -17v-652q0 -10 -6.5 -17t-17.5 -7h-90zM88 0q-8 0 -14 6t-6 15q0 5 3 11l165 269l132 -22l-149 -252q-6 -10 -14.5 -18.5t-25.5 -8.5h-91z
M337 366h126v223h-126q-53 0 -82.5 -32.5t-29.5 -83.5q0 -52 28 -79.5t84 -27.5z" />
    <glyph glyph-name="uni0430" unicode="&#x430;" horiz-adv-x="571" 
d="M217 -10q-52 0 -94 20.5t-66.5 55t-24.5 77.5q0 70 57 111.5t149 55.5l137 20v21q0 42 -21 65t-72 23q-36 0 -58.5 -14.5t-33.5 -38.5q-8 -13 -23 -13h-79q-11 0 -16.5 6t-5.5 16q1 16 13.5 39t38 44.5t66.5 36.5t99 15q63 0 106.5 -15.5t69.5 -41.5t38 -61t12 -74v-314
q0 -10 -7 -17t-17 -7h-81q-11 0 -17.5 7t-6.5 17v39q-13 -18 -35 -35t-53.5 -27.5t-74.5 -10.5zM251 85q35 0 63.5 15t45 46.5t16.5 79.5v21l-100 -16q-59 -9 -88 -29t-29 -49q0 -22 13.5 -37.5t34.5 -23t44 -7.5z" />
    <glyph glyph-name="uni0431" unicode="&#x431;" horiz-adv-x="597" 
d="M301 -10q-83 0 -137.5 29.5t-81.5 86.5t-31 139v60v60q2 88 17.5 146.5t46.5 97t80 64t116 44.5t155 40q10 2 18.5 -3t9.5 -16l13 -66q2 -10 -3 -17.5t-14 -9.5q-76 -17 -131 -30.5t-91 -30.5t-56.5 -44.5t-28.5 -71.5t-5 -113l-23 19q6 31 31 57t61.5 41.5t77.5 15.5
q72 0 121 -27t75.5 -75.5t29.5 -113.5q2 -36 0 -66q-3 -64 -32 -113t-83 -76t-135 -27zM301 82q54 0 83 33t31 96q1 11 1 26.5t-1 29.5q-2 63 -30.5 96t-75.5 33q-54 0 -86.5 -33t-34.5 -96q-1 -14 -1 -29.5t1 -26.5q2 -63 31 -96t82 -33z" />
    <glyph glyph-name="uni0432" unicode="&#x432;" horiz-adv-x="583" 
d="M90 0q-10 0 -17 7t-7 17v472q0 10 7 17t17 7h222q106 0 157 -39t51 -105q0 -42 -16 -65t-44 -40q35 -16 54.5 -48.5t19.5 -71.5q0 -72 -53.5 -111.5t-157.5 -39.5h-233zM194 90h120q40 0 64 15t24 47q0 33 -22 48t-66 15h-120v-125zM194 308h116q40 0 63 16.5t23 48.5
t-23.5 44.5t-62.5 12.5h-116v-122z" />
    <glyph glyph-name="uni0433" unicode="&#x433;" horiz-adv-x="445" 
d="M90 0q-10 0 -17 7t-7 17v472q0 10 7 17t17 7h317q10 0 17 -7t7 -17v-57q0 -11 -7 -18t-17 -7h-210v-390q0 -10 -6.5 -17t-17.5 -7h-83z" />
    <glyph glyph-name="uni0434" unicode="&#x434;" horiz-adv-x="628" 
d="M46 -110q-10 0 -17 7t-7 17v168q0 10 7 17t17 7h8q26 0 42.5 27.5t24.5 84t8 143.5v135q0 10 7 17t17 7h356q11 0 17.5 -7t6.5 -17v-389h45q11 0 17.5 -7t6.5 -17v-169q0 -10 -6.5 -17t-17.5 -7h-82q-11 0 -18 7t-7 17v86h-318v-86q0 -10 -7 -17t-17 -7h-83zM208 106
l195 1v307h-148v-67q0 -90 -12 -149t-35 -92z" />
    <glyph glyph-name="uni0435" unicode="&#x435;" horiz-adv-x="577" 
d="M290 -10q-111 0 -176 64t-70 182q-1 10 -1 25.5t1 24.5q4 76 34.5 130.5t84.5 84t127 29.5q81 0 136 -33.5t83 -93t28 -137.5v-21q0 -10 -7 -17t-18 -7h-332v-3v-5q1 -35 13.5 -64.5t37 -47.5t58.5 -18q28 0 47 8.5t31 19.5t17 18q9 12 14.5 14.5t16.5 2.5h86
q10 0 16.5 -6t5.5 -15q-1 -16 -16.5 -39t-44.5 -45t-72.5 -36.5t-99.5 -14.5zM180 305h221v3q0 39 -13 68.5t-38 46t-60 16.5t-60 -16.5t-37.5 -46t-12.5 -68.5v-3z" />
    <glyph glyph-name="uni0436" unicode="&#x436;" horiz-adv-x="856" 
d="M42 0q-9 0 -15 5t-6 13q0 6 5 13l165 239l-144 219q-2 3 -3 6.5t-1 6.5q0 8 5.5 13t15.5 5h89q12 0 18 -4.5t10 -11.5l122 -187h61v179q0 10 7 17t17 7h81q11 0 17.5 -7t6.5 -17v-179h59l124 187q3 7 9.5 11.5t17.5 4.5h90q9 0 15 -5t6 -13q0 -3 -1.5 -6.5t-3.5 -6.5
l-144 -219l166 -239q4 -6 4 -13q0 -8 -5.5 -13t-15.5 -5h-100q-12 0 -18.5 5t-9.5 10l-133 197h-60v-188q0 -10 -6.5 -17t-17.5 -7h-81q-10 0 -17 7t-7 17v188h-60l-133 -197q-3 -5 -10 -10t-18 -5h-101z" />
    <glyph glyph-name="uni0437" unicode="&#x437;" horiz-adv-x="535" 
d="M266 -10q-64 0 -107.5 15t-69 38t-37 48.5t-12.5 46.5q-1 9 5 14t13 5h82q10 0 15.5 -4t9.5 -13q10 -30 37.5 -42t68.5 -12q28 0 50 7.5t34 23t12 38.5q0 33 -19 50.5t-62 17.5h-55q-10 0 -16 6t-6 16v42q0 9 6 15.5t16 6.5h51q36 0 54 13.5t18 42.5q0 17 -8.5 32.5
t-27.5 25.5t-53 10q-47 0 -67 -15t-29 -45q-4 -9 -9.5 -13t-16.5 -4h-79q-8 0 -13.5 5t-5.5 14q2 27 14.5 54.5t39 50.5t67.5 36.5t100 13.5q80 0 127 -22t67.5 -55.5t20.5 -69.5q0 -37 -13.5 -64t-49.5 -44q45 -17 62 -52t18 -77q0 -50 -29 -84.5t-81 -53t-122 -18.5z" />
    <glyph glyph-name="uni0438" unicode="&#x438;" horiz-adv-x="623" 
d="M89 0q-9 0 -16 7t-7 16v473q0 10 7 17t17 7h83q11 0 17.5 -7t6.5 -17v-395l-35 25l275 378q5 7 11 11.5t16 4.5h76q9 0 16 -6.5t7 -15.5v-474q0 -10 -7 -17t-17 -7h-83q-11 0 -17.5 7t-6.5 17v377l37 -5l-277 -380q-4 -6 -10.5 -11t-16.5 -5h-76z" />
    <glyph glyph-name="uni0439" unicode="&#x439;" horiz-adv-x="623" 
d="M89 0q-9 0 -16 7t-7 16v473q0 10 7 17t17 7h83q11 0 17.5 -7t6.5 -17v-395l-35 25l275 378q5 7 11 11.5t16 4.5h76q9 0 16 -6.5t7 -15.5v-474q0 -10 -7 -17t-17 -7h-83q-11 0 -17.5 7t-6.5 17v377l37 -5l-277 -380q-4 -6 -10.5 -11t-16.5 -5h-76zM320 588q-60 0 -96 19
t-51.5 49.5t-15.5 65.5q0 8 5 13.5t14 5.5h57q9 0 14 -5.5t5 -13.5q0 -22 14 -39.5t54 -17.5q42 0 55 17.5t13 39.5q0 8 5 13.5t14 5.5h58q9 0 14 -5.5t5 -13.5q0 -35 -16 -65.5t-51.5 -49.5t-96.5 -19z" />
    <glyph glyph-name="uni043A" unicode="&#x43a;" horiz-adv-x="571" 
d="M90 0q-10 0 -17 7t-7 17v472q0 10 7 17t17 7h82q10 0 17 -7t7 -17v-179h72l122 187q4 7 10.5 11.5t17.5 4.5h89q10 0 16 -5t6 -13q0 -3 -1.5 -6.5t-3.5 -6.5l-144 -219l165 -239q5 -6 5 -13q0 -8 -6 -13t-15 -5h-101q-10 0 -16.5 4t-11.5 11l-132 196h-72v-187
q0 -10 -7 -17t-17 -7h-82z" />
    <glyph glyph-name="uni043B" unicode="&#x43b;" horiz-adv-x="603" 
d="M50 0q-11 0 -18 7t-7 18v62q0 22 23 24q30 2 48 28t26.5 80.5t8.5 141.5v135q0 10 6.5 17t17.5 7h355q10 0 17 -7t7 -17v-472q0 -10 -7 -17t-17 -7h-83q-11 0 -17.5 7t-6.5 17v390h-147v-67q0 -96 -10.5 -162.5t-35 -107t-64 -59t-96.5 -18.5z" />
    <glyph glyph-name="uni043C" unicode="&#x43c;" horiz-adv-x="703" 
d="M88 0q-10 0 -16 6t-6 15v480q0 8 6.5 13.5t13.5 5.5h84q17 0 26 -17l154 -280l154 280q9 17 26 17h83q9 0 15 -5.5t6 -13.5v-480q0 -9 -6 -15t-16 -6h-86q-10 0 -15.5 6t-5.5 15v363l41 -7l-148 -273q-5 -9 -12 -16.5t-20 -7.5h-33q-12 0 -19 7t-12 17l-145 262l38 6
v-351q0 -9 -6 -15t-15 -6h-86z" />
    <glyph glyph-name="uni043D" unicode="&#x43d;" horiz-adv-x="623" 
d="M90 0q-10 0 -17 7t-7 17v472q0 10 7 17t17 7h83q11 0 17.5 -7t6.5 -17v-179h226v179q0 10 7 17t17 7h83q10 0 17 -7t7 -17v-472q0 -10 -7 -17t-17 -7h-83q-10 0 -17 7t-7 17v188h-226v-188q0 -10 -6.5 -17t-17.5 -7h-83z" />
    <glyph glyph-name="uni043E" unicode="&#x43e;" horiz-adv-x="592" 
d="M296 -10q-80 0 -134.5 28t-83 79t-32.5 119q-1 18 -1 44t1 44q4 69 33.5 119.5t84 78.5t132.5 28t132.5 -28t84 -78.5t33.5 -119.5q1 -18 1 -44t-1 -44q-4 -68 -32.5 -119t-83 -79t-134.5 -28zM296 89q53 0 82 33.5t32 98.5q1 15 1 39t-1 39q-3 65 -32 98.5t-82 33.5
t-82 -33.5t-32 -98.5q-1 -15 -1 -39t1 -39q3 -65 32 -98.5t82 -33.5z" />
    <glyph glyph-name="uni043F" unicode="&#x43f;" horiz-adv-x="611" 
d="M90 0q-10 0 -17 7t-7 17v472q0 10 7 17t17 7h428q11 0 17.5 -7t6.5 -17v-472q0 -10 -6.5 -17t-17.5 -7h-83q-10 0 -17 7t-7 17v390h-214v-390q0 -10 -6.5 -17t-17.5 -7h-83z" />
    <glyph glyph-name="uni0440" unicode="&#x440;" horiz-adv-x="614" 
d="M91 -190q-10 0 -17 7t-7 17v662q0 10 7 17t17 7h79q11 0 17.5 -7t6.5 -17v-40q24 32 63 53t97 21q53 0 92 -17t65 -48.5t40 -74.5t16 -95q1 -17 1 -35t-1 -36q-1 -50 -15 -92.5t-40.5 -74t-65.5 -49.5t-92 -18q-54 0 -92 19.5t-62 51.5v-227q0 -10 -6.5 -17t-17.5 -7h-85
zM317 97q43 0 67 18.5t35 48.5t13 66q1 30 0 60q-2 36 -13 66t-35 48.5t-67 18.5q-41 0 -66.5 -19t-37 -48.5t-13.5 -60.5q-1 -18 -1 -38t1 -39q1 -30 14 -57.5t38 -45.5t65 -18z" />
    <glyph glyph-name="uni0441" unicode="&#x441;" horiz-adv-x="571" 
d="M291 -10q-72 0 -126.5 27t-85 78.5t-33.5 124.5q-1 15 -1 39.5t1 40.5q3 73 33.5 124.5t85 78.5t126.5 27q64 0 109 -17.5t74 -45t43.5 -57t15.5 -53.5q1 -11 -6.5 -17.5t-17.5 -6.5h-88q-10 0 -15.5 5t-10.5 15q-15 40 -39.5 56.5t-62.5 16.5q-50 0 -79.5 -31.5
t-31.5 -99.5q-2 -38 0 -70q2 -69 31.5 -100t79.5 -31q39 0 63 16.5t39 56.5q5 10 10.5 15t15.5 5h88q10 0 17.5 -6.5t6.5 -17.5q-1 -18 -9.5 -40.5t-27 -46t-46.5 -43t-67.5 -31.5t-91.5 -12z" />
    <glyph glyph-name="uni0442" unicode="&#x442;" horiz-adv-x="530" 
d="M225 0q-11 0 -17.5 7t-6.5 17v390h-163q-11 0 -17.5 7t-6.5 18v57q0 10 6.5 17t17.5 7h454q11 0 18 -7t7 -17v-57q0 -11 -7 -18t-18 -7h-162v-390q0 -10 -7 -17t-17 -7h-81z" />
    <glyph glyph-name="uni0443" unicode="&#x443;" horiz-adv-x="570" 
d="M103 -190q-10 0 -17 6.5t-7 17.5v57q0 11 7 17.5t17 6.5h31q20 0 33 8t24 26.5t24 50.5l208 501q4 8 10 13.5t18 5.5h76q8 0 14.5 -6t6.5 -14q0 -4 -0.5 -7t-3.5 -9l-190 -454q-17 -43 -36.5 -82.5t-43 -71t-54.5 -49t-73 -17.5h-44zM232 13l-203 471q-4 10 -4 14
q1 9 7 15.5t15 6.5h80q12 0 17.5 -6t8.5 -13l155 -382z" />
    <glyph glyph-name="uni0444" unicode="&#x444;" horiz-adv-x="762" 
d="M340 -190q-11 0 -17.5 7t-6.5 17v166q-90 0 -148.5 27.5t-88 77.5t-33.5 117q-2 38 0 76q4 67 34.5 117t89.5 77.5t146 27.5v166q0 10 6.5 17t17.5 7h82q11 0 17.5 -7t6.5 -17v-166q88 0 146.5 -27.5t89 -77.5t33.5 -117q3 -38 0 -76q-3 -67 -32.5 -117t-88 -77.5
t-148.5 -27.5v-166q0 -10 -6.5 -17t-17.5 -7h-82zM316 99v322q-69 0 -102.5 -33t-36.5 -99q-1 -14 -1 -29.5t1 -28.5q4 -67 37 -99.5t102 -32.5zM446 99q70 0 103 33t36 99q1 13 1 28.5t-1 29.5q-2 67 -36.5 99.5t-102.5 32.5v-322z" />
    <glyph glyph-name="uni0445" unicode="&#x445;" horiz-adv-x="564" 
d="M44 0q-9 0 -15.5 6.5t-6.5 15.5q0 3 1.5 7t5.5 10l170 228l-158 214q-3 5 -4.5 9t-1.5 8q0 9 6.5 15.5t15.5 6.5h87q12 0 18 -6t9 -11l113 -150l113 150q4 5 9.5 11t17.5 6h83q9 0 15.5 -6.5t6.5 -14.5q0 -5 -1.5 -9t-4.5 -9l-160 -216l171 -226q4 -6 5.5 -10t1.5 -7
q0 -9 -6.5 -15.5t-15.5 -6.5h-91q-11 0 -17 5.5t-10 10.5l-120 159l-122 -159q-4 -5 -9.5 -10.5t-17.5 -5.5h-88z" />
    <glyph glyph-name="uni0446" unicode="&#x446;" horiz-adv-x="637" 
d="M504 -122q-10 0 -17 7t-7 17v98h-390q-10 0 -17 7t-7 17v472q0 10 7 17t17 7h83q11 0 17.5 -7t6.5 -17v-390h214v390q0 10 7 17t17 7h83q11 0 17.5 -7t6.5 -17v-390h45q10 0 17 -7t7 -17v-180q0 -10 -7 -17t-17 -7h-83z" />
    <glyph glyph-name="uni0447" unicode="&#x447;" horiz-adv-x="578" 
d="M395 0q-10 0 -17 7t-7 17v170q-25 -22 -61.5 -32.5t-82.5 -10.5q-91 0 -140.5 43.5t-49.5 140.5v161q0 10 7 17t17 7h86q10 0 17 -7t7 -17v-154q0 -40 21.5 -57.5t69.5 -17.5q49 0 79 13t30 46v170q0 10 7 17t17 7h90q10 0 17 -7t7 -17v-472q0 -10 -7 -17t-17 -7h-90z
" />
    <glyph glyph-name="uni0448" unicode="&#x448;" horiz-adv-x="809" 
d="M90 0q-10 0 -17 7t-7 17v472q0 10 7 17t17 7h79q11 0 17.5 -7t6.5 -17v-390h150v390q0 10 6.5 17t17.5 7h72q11 0 17.5 -7t6.5 -17v-390h150v390q0 10 6.5 17t17.5 7h79q10 0 17 -7t7 -17v-472q0 -10 -7 -17t-17 -7h-626z" />
    <glyph glyph-name="uni0449" unicode="&#x449;" horiz-adv-x="834" 
d="M702 -122q-10 0 -17 7t-7 17v98h-588q-10 0 -17 7t-7 17v472q0 10 7 17t17 7h79q11 0 17.5 -7t6.5 -17v-390h150v390q0 10 6.5 17t17.5 7h72q11 0 17.5 -7t6.5 -17v-390h150v390q0 10 6.5 17t17.5 7h79q10 0 17 -7t7 -17v-390h45q10 0 17 -7t7 -17v-180q0 -10 -7 -17
t-17 -7h-83z" />
    <glyph glyph-name="uni044A" unicode="&#x44a;" horiz-adv-x="611" 
d="M183 0q-10 0 -17 7t-7 17v390h-121q-11 0 -17.5 7t-6.5 18v57q0 10 6.5 17t17.5 7h228q11 0 17.5 -7t6.5 -17v-141h92q101 0 152.5 -48t51.5 -132q0 -87 -55 -131t-158 -44h-190zM288 95h83q49 0 72 18t23 62q0 43 -22.5 64t-72.5 21h-83v-165z" />
    <glyph glyph-name="uni044B" unicode="&#x44b;" horiz-adv-x="765" 
d="M90 0q-10 0 -17 7t-7 17v472q0 10 7 17t17 7h84q10 0 17 -7t7 -17v-141h97q102 0 153 -48t51 -132q0 -87 -54.5 -131t-157.5 -44h-197zM196 95h88q49 0 72.5 18t23.5 62q0 43 -22.5 64t-73.5 21h-88v-165zM589 0q-10 0 -17 7t-7 17v472q0 10 7 17t17 7h83q11 0 17.5 -7
t6.5 -17v-472q0 -10 -6.5 -17t-17.5 -7h-83z" />
    <glyph glyph-name="uni044C" unicode="&#x44c;" horiz-adv-x="530" 
d="M90 0q-10 0 -17 7t-7 17v472q0 10 7 17t17 7h84q10 0 17 -7t7 -17v-141h103q102 0 153 -48t51 -132q0 -87 -55 -131t-157 -44h-203zM196 95h94q49 0 72.5 18t23.5 62q0 43 -22.5 64t-73.5 21h-94v-165z" />
    <glyph glyph-name="uni044D" unicode="&#x44d;" horiz-adv-x="575" 
d="M276 -10q-63 0 -106.5 15t-69.5 39t-39 52t-15 53q-2 9 5 14.5t14 5.5h80q12 0 16.5 -4.5t8.5 -12.5q15 -36 41 -51t65 -15q51 0 81 30t32 96v5h-169q-10 0 -16 6.5t-6 15.5v42q0 9 6 15.5t16 6.5h169v6q-2 63 -32 93.5t-81 30.5q-38 0 -64.5 -14.5t-41.5 -51.5
q-5 -9 -9.5 -13t-16.5 -4h-77q-8 0 -14.5 5.5t-5.5 14.5q3 25 16 53t39 52t69 39.5t105 15.5q116 0 180.5 -59.5t68.5 -167.5q2 -18 2 -43t-2 -43q-4 -108 -67 -167.5t-182 -59.5z" />
    <glyph glyph-name="uni044E" unicode="&#x44e;" horiz-adv-x="834" 
d="M354 212h-157v-188q0 -10 -6.5 -17t-17.5 -7h-83q-10 0 -17 7t-7 17v472q0 10 7 17t17 7h83q11 0 17.5 -7t6.5 -17v-179h157v-105zM538 -10q-80 0 -134.5 28t-83.5 79t-32 119q-1 18 -1 44t1 44q3 69 33 119.5t84.5 78.5t132.5 28t132.5 -28t84 -78.5t32.5 -119.5
q2 -18 2 -44t-2 -44q-3 -68 -31.5 -119t-83 -79t-134.5 -28zM538 89q53 0 82 33.5t32 98.5q1 15 1 39t-1 39q-3 65 -32 98.5t-82 33.5t-82.5 -33.5t-31.5 -98.5q-1 -15 -1 -39t1 -39q2 -65 31.5 -98.5t82.5 -33.5z" />
    <glyph glyph-name="uni044F" unicode="&#x44f;" horiz-adv-x="574" 
d="M396 0q-11 0 -17.5 7t-6.5 17v153h-99v5q-101 0 -151.5 46.5t-50.5 122.5q0 84 53 126.5t153 42.5h204q10 0 17 -7t7 -17v-472q0 -10 -7 -17t-17 -7h-85zM76 0q-9 0 -15 6t-6 14q0 3 1 7.5t5 8.5l112 176l122 -16l-111 -181q-3 -6 -10 -10.5t-15 -4.5h-83zM274 272h100
v153h-94q-46 0 -68 -16.5t-22 -57.5q0 -35 20.5 -57t63.5 -22z" />
    <glyph glyph-name="uni0450" unicode="&#x450;" horiz-adv-x="577" 
d="M290 -10q-111 0 -176 64t-70 182q-1 10 -1 25.5t1 24.5q4 76 34.5 130.5t84.5 84t127 29.5q81 0 136 -33.5t83 -93t28 -137.5v-21q0 -10 -7 -17t-18 -7h-332v-3v-5q1 -35 13.5 -64.5t37 -47.5t58.5 -18q28 0 47 8.5t31 19.5t17 18q9 12 14.5 14.5t16.5 2.5h86
q10 0 16.5 -6t5.5 -15q-1 -16 -16.5 -39t-44.5 -45t-72.5 -36.5t-99.5 -14.5zM180 305h221v3q0 39 -13 68.5t-38 46t-60 16.5t-60 -16.5t-37.5 -46t-12.5 -68.5v-3zM278 595q-12 0 -19.5 3t-15.5 10l-125 102q-5 5 -5 12q0 19 19 19h100q13 0 20.5 -3.5t16.5 -14.5l82 -99
q5 -5 5 -13q0 -16 -16 -16h-62z" />
    <glyph glyph-name="uni0451" unicode="&#x451;" horiz-adv-x="577" 
d="M290 -10q-111 0 -176 64t-70 182q-1 10 -1 25.5t1 24.5q4 76 34.5 130.5t84.5 84t127 29.5q81 0 136 -33.5t83 -93t28 -137.5v-21q0 -10 -7 -17t-18 -7h-332v-3v-5q1 -35 13.5 -64.5t37 -47.5t58.5 -18q28 0 47 8.5t31 19.5t17 18q9 12 14.5 14.5t16.5 2.5h86
q10 0 16.5 -6t5.5 -15q-1 -16 -16.5 -39t-44.5 -45t-72.5 -36.5t-99.5 -14.5zM180 305h221v3q0 39 -13 68.5t-38 46t-60 16.5t-60 -16.5t-37.5 -46t-12.5 -68.5v-3zM348 614q-10 0 -16 6t-6 16v73q0 10 6 16.5t16 6.5h73q10 0 16.5 -6.5t6.5 -16.5v-73q0 -10 -6.5 -16
t-16.5 -6h-73zM160 614q-10 0 -16 6t-6 16v73q0 10 6 16.5t16 6.5h73q10 0 16.5 -6.5t6.5 -16.5v-73q0 -10 -6.5 -16t-16.5 -6h-73z" />
    <glyph glyph-name="uni0452" unicode="&#x452;" horiz-adv-x="628" 
d="M303 -190q-10 0 -17 7t-7 17v58q0 10 7 17t17 7h11q41 0 65.5 13.5t37.5 38t17 57.5t4 71v155q0 59 -28.5 91.5t-82.5 32.5q-52 0 -83 -32.5t-31 -91.5v-227q0 -10 -7 -17t-18 -7h-89q-10 0 -17 7t-7 17v516h-45q-10 0 -17 6.5t-7 17.5v29q0 10 7 17t17 7h45v69
q0 10 7 17t17 7h89q11 0 18 -7t7 -17v-69h149q11 0 17.5 -7t6.5 -17v-29q0 -11 -6.5 -17.5t-17.5 -6.5h-149v-130q27 33 65.5 52.5t95.5 19.5q66 0 111 -29t68 -80t23 -116v-163q0 -63 -14 -115t-44 -90t-77.5 -58.5t-114.5 -20.5h-23z" />
    <glyph glyph-name="uni0453" unicode="&#x453;" horiz-adv-x="445" 
d="M90 0q-10 0 -17 7t-7 17v472q0 10 7 17t17 7h317q10 0 17 -7t7 -17v-57q0 -11 -7 -18t-17 -7h-210v-390q0 -10 -6.5 -17t-17.5 -7h-83zM219 595q-16 0 -16 16q0 8 5 13l81 99q10 11 17 14.5t20 3.5h100q19 0 19 -19q0 -7 -5 -12l-124 -102q-8 -7 -15.5 -10t-20.5 -3h-61z
" />
    <glyph glyph-name="uni0454" unicode="&#x454;" horiz-adv-x="575" 
d="M299 -10q-119 0 -181.5 59t-67.5 168q0 9 -0.5 26t0 34.5t0.5 25.5q4 108 68.5 167.5t180.5 59.5q78 0 127 -24t73.5 -61t28.5 -75q1 -9 -5 -14.5t-15 -5.5h-77q-9 0 -13.5 3t-8.5 11q-19 39 -45 54t-65 15q-49 0 -80 -29.5t-33 -95.5v-5h169q10 0 16 -6t6 -16v-42
q0 -9 -6 -15.5t-16 -6.5h-169v-6q2 -66 32.5 -95.5t80.5 -29.5q41 0 66 15.5t43 52.5q4 8 9 11.5t13 3.5h80q8 0 14 -5.5t5 -14.5q-3 -38 -27.5 -74.5t-74 -60.5t-128.5 -24z" />
    <glyph glyph-name="uni0455" unicode="&#x455;" horiz-adv-x="532" 
d="M263 -10q-60 0 -102.5 14t-69.5 35t-40 42t-14 35q-1 11 6.5 17.5t16.5 6.5h79q4 0 7 -1t8 -6q13 -11 27.5 -23t34.5 -20.5t50 -8.5q39 0 65.5 15.5t26.5 44.5q0 21 -11.5 34t-42.5 23.5t-88 22.5q-56 13 -93 33t-55 50t-18 70q0 39 23.5 74.5t70 58.5t115.5 23
q54 0 94 -13.5t66.5 -33.5t40.5 -40.5t15 -35.5q1 -11 -6 -17.5t-16 -6.5h-74q-5 0 -9 2t-8 5q-11 10 -24 21.5t-31.5 19.5t-48.5 8q-38 0 -58 -16.5t-20 -41.5q0 -17 9.5 -29.5t38.5 -23.5t88 -23q67 -12 106.5 -35.5t56 -54t16.5 -67.5q0 -45 -26.5 -81t-78 -56.5
t-127.5 -20.5z" />
    <glyph glyph-name="uni0456" unicode="&#x456;" horiz-adv-x="264" 
d="M90 0q-10 0 -17 7t-7 17v472q0 10 7 17t17 7h83q11 0 17.5 -7t6.5 -17v-472q0 -10 -6.5 -17t-17.5 -7h-83zM86 606q-10 0 -17 7t-7 17v72q0 10 7 17t17 7h91q11 0 18 -7t7 -17v-72q0 -10 -7 -17t-18 -7h-91z" />
    <glyph glyph-name="uni0457" unicode="&#x457;" horiz-adv-x="264" 
d="M90 0q-10 0 -17 7t-7 17v472q0 10 7 17t17 7h83q11 0 17.5 -7t6.5 -17v-472q0 -10 -6.5 -17t-17.5 -7h-83zM189 614q-10 0 -16 6t-6 16v73q0 10 6 16.5t16 6.5h73q10 0 16.5 -6.5t6.5 -16.5v-73q0 -10 -6.5 -16t-16.5 -6h-73zM1 614q-10 0 -16 6t-6 16v73q0 10 6 16.5
t16 6.5h73q10 0 16.5 -6.5t6.5 -16.5v-73q0 -10 -6.5 -16t-16.5 -6h-73z" />
    <glyph glyph-name="uni0458" unicode="&#x458;" horiz-adv-x="279" 
d="M-20 -190q-10 0 -17 7t-7 17v58q0 10 7 17t17 7h26q31 0 46 11t20 30.5t5 43.5v495q0 10 7 17t17 7h87q10 0 17 -7t7 -17v-497q0 -59 -21.5 -101t-64 -65t-108.5 -23h-38zM97 606q-11 0 -17.5 7t-6.5 17v72q0 10 6.5 17t17.5 7h94q11 0 18 -7t7 -17v-72q0 -10 -7 -17
t-18 -7h-94z" />
    <glyph glyph-name="uni0459" unicode="&#x459;" horiz-adv-x="825" 
d="M415 0q-10 0 -17 7t-7 17v390h-130v-67q0 -96 -11 -162t-35.5 -105.5t-65.5 -58.5t-99 -20q-11 -1 -18 6.5t-7 17.5v63q0 20 23 23q30 6 49.5 29.5t29 76.5t9.5 144v135q0 10 7 17t17 7h339q10 0 17 -7t7 -17v-141h74q101 0 152 -48t51 -132q0 -87 -54.5 -131t-157.5 -44
h-173zM521 95h64q50 0 73 18t23 62q0 43 -22.5 64t-73.5 21h-64v-165z" />
    <glyph glyph-name="uni045A" unicode="&#x45a;" horiz-adv-x="833" 
d="M90 0q-10 0 -17 7t-7 17v472q0 10 7 17t17 7h83q11 0 17.5 -7t6.5 -17v-179h202v179q0 10 7 17t17 7h83q11 0 17.5 -7t6.5 -17v-141h74q102 0 153 -48t51 -132q0 -87 -55 -131t-158 -44h-172q-10 0 -17 7t-7 17v188h-202v-188q0 -10 -6.5 -17t-17.5 -7h-83zM528 95h65
q49 0 72 18t23 62q0 43 -22 64t-73 21h-65v-165z" />
    <glyph glyph-name="uni045B" unicode="&#x45b;" horiz-adv-x="651" 
d="M100 0q-11 0 -17.5 7t-6.5 17v516h-45q-11 0 -17.5 6.5t-6.5 17.5v29q0 10 6.5 17t17.5 7h45v69q0 10 6.5 17t17.5 7h89q10 0 17 -7t7 -17v-69h150q10 0 17 -7t7 -17v-29q0 -11 -7 -17.5t-17 -6.5h-150v-130q27 33 66 52.5t96 19.5q66 0 111 -29t68 -80t23 -116v-233
q0 -10 -7 -17t-17 -7h-90q-11 0 -17.5 7t-6.5 17v227q0 59 -28.5 91.5t-82.5 32.5q-52 0 -83.5 -32.5t-31.5 -91.5v-227q0 -10 -7 -17t-17 -7h-89z" />
    <glyph glyph-name="uni045C" unicode="&#x45c;" horiz-adv-x="571" 
d="M90 0q-10 0 -17 7t-7 17v472q0 10 7 17t17 7h82q10 0 17 -7t7 -17v-179h72l122 187q4 7 10.5 11.5t17.5 4.5h89q10 0 16 -5t6 -13q0 -3 -1.5 -6.5t-3.5 -6.5l-144 -219l165 -239q5 -6 5 -13q0 -8 -6 -13t-15 -5h-101q-10 0 -16.5 4t-11.5 11l-132 196h-72v-187
q0 -10 -7 -17t-17 -7h-82zM243 595q-16 0 -16 16q0 8 5 13l81 99q10 11 17 14.5t20 3.5h100q19 0 19 -19q0 -7 -5 -12l-124 -102q-8 -7 -15.5 -10t-20.5 -3h-61z" />
    <glyph glyph-name="uni045D" unicode="&#x45d;" horiz-adv-x="623" 
d="M89 0q-9 0 -16 7t-7 16v473q0 10 7 17t17 7h83q11 0 17.5 -7t6.5 -17v-395l-35 25l275 378q5 7 11 11.5t16 4.5h76q9 0 16 -6.5t7 -15.5v-474q0 -10 -7 -17t-17 -7h-83q-11 0 -17.5 7t-6.5 17v377l37 -5l-277 -380q-4 -6 -10.5 -11t-16.5 -5h-76zM307 595q-12 0 -19.5 3
t-15.5 10l-125 102q-5 5 -5 12q0 19 19 19h100q13 0 20.5 -3.5t16.5 -14.5l82 -99q5 -5 5 -13q0 -16 -16 -16h-62z" />
    </font>
</defs>
</svg>
