<?xml version="1.0" standalone="no"?>
<!DOCTYPE svg PUBLIC "-//W3C//DTD SVG 1.1//EN" "http://www.w3.org/Graphics/SVG/1.1/DTD/svg11.dtd" >
<svg xmlns="http://www.w3.org/2000/svg" xmlns:xlink="http://www.w3.org/1999/xlink" version="1.1">
<metadata>
Created by FontForge 20170731 at Tue Apr 27 19:14:10 2021
 By Aleksey,,,
Copyright 2015 The Rubik Project Authors (https://github.com/googlefonts/rubik)
</metadata>
<defs>
<font id="Rubik-Light" horiz-adv-x="0" >
  <font-face 
    font-family="Rubik Light"
    font-weight="300"
    font-stretch="normal"
    units-per-em="1000"
    panose-1="0 0 0 0 0 0 0 0 0 0"
    ascent="800"
    descent="-200"
    x-height="520"
    cap-height="700"
    bbox="-191 -264 1071 905"
    underline-thickness="50"
    underline-position="-125"
    unicode-range="U+000D-FB4B"
  />
<missing-glyph horiz-adv-x="695" 
d="M102 -117q-22 0 -22 22v891q0 22 22 22h491q22 0 22 -22v-891q0 -22 -22 -22h-491zM181 -59h373v762zM141 -9l377 769h-377v-769z" />
    <glyph glyph-name="fi" unicode="fi" horiz-adv-x="495" 
d="M152 0q-10 0 -16 6t-6 16v440h-89q-10 0 -16 6t-6 16v14q0 10 6 16t16 6h89v57q0 45 12.5 82t45 59t93.5 22h111q10 0 16 -6t6 -16v-14q0 -10 -6 -16t-16 -6h-111q-53 0 -71.5 -28.5t-18.5 -81.5v-52h201q10 0 16 -6t6 -16v-476q0 -10 -6 -16t-16 -6h-17q-10 0 -16 6
t-6 16v440h-162v-440q0 -10 -6 -16t-16 -6h-17z" />
    <glyph glyph-name="fl" unicode="fl" horiz-adv-x="555" 
d="M152 0q-10 0 -16 6t-6 16v440h-89q-10 0 -16 6t-6 16v14q0 10 6 16t16 6h89v57q0 45 12.5 82t45 59t93.5 22h52q10 0 16 -6t6 -16v-14q0 -10 -6 -16t-16 -6h-52q-53 0 -71.5 -28.5t-18.5 -81.5v-52h221v198q0 10 6 16t16 6h17q10 0 16 -6t6 -16v-696q0 -10 -6 -16t-16 -6
h-17q-10 0 -16 6t-6 16v440h-221v-440q0 -10 -6 -16t-16 -6h-17z" />
    <glyph glyph-name="f_f" unicode="ff" horiz-adv-x="642" 
d="M152 0q-10 0 -16 6t-6 16v440h-89q-10 0 -16 6t-6 16v14q0 10 6 16t16 6h89v57q0 45 12.5 82t45 59t93.5 22h52q10 0 16 -6t6 -16v-14q0 -10 -6 -16t-16 -6h-52q-53 0 -71.5 -28.5t-18.5 -81.5v-52h221v57q0 45 12.5 82t45 59t93.5 22h52q10 0 16 -6t6 -16v-14
q0 -10 -6 -16t-16 -6h-52q-53 0 -71.5 -28.5t-18.5 -81.5v-52h132q10 0 16 -6t6 -16v-14q0 -10 -6 -16t-16 -6h-132v-440q0 -10 -6 -16t-16 -6h-17q-10 0 -16 6t-6 16v440h-221v-440q0 -10 -6 -16t-16 -6h-17z" />
    <glyph glyph-name="f_f_i" unicode="ffi" horiz-adv-x="777" 
d="M152 0q-10 0 -16 6t-6 16v440h-89q-10 0 -16 6t-6 16v14q0 10 6 16t16 6h89v57q0 45 12.5 82t45 59t93.5 22h52q10 0 16 -6t6 -16v-14q0 -10 -6 -16t-16 -6h-52q-53 0 -71.5 -28.5t-18.5 -81.5v-52h221v57q0 45 12.5 82t45 59t93.5 22h111q10 0 16 -6t6 -16v-14
q0 -10 -6 -16t-16 -6h-111q-53 0 -71.5 -28.5t-18.5 -81.5v-52h201q10 0 16 -6t6 -16v-476q0 -10 -6 -16t-16 -6h-17q-10 0 -16 6t-6 16v440h-162v-440q0 -10 -6 -16t-16 -6h-17q-10 0 -16 6t-6 16v440h-221v-440q0 -10 -6 -16t-16 -6h-17z" />
    <glyph glyph-name="f_f_l" unicode="ffl" horiz-adv-x="837" 
d="M152 0q-10 0 -16 6t-6 16v440h-89q-10 0 -16 6t-6 16v14q0 10 6 16t16 6h89v57q0 45 12.5 82t45 59t93.5 22h52q10 0 16 -6t6 -16v-14q0 -10 -6 -16t-16 -6h-52q-53 0 -71.5 -28.5t-18.5 -81.5v-52h221v57q0 45 12.5 82t45 59t93.5 22h52q10 0 16 -6t6 -16v-14
q0 -10 -6 -16t-16 -6h-52q-53 0 -71.5 -28.5t-18.5 -81.5v-52h221v198q0 10 6 16t16 6h17q10 0 16 -6t6 -16v-696q0 -10 -6 -16t-16 -6h-17q-10 0 -16 6t-6 16v440h-221v-440q0 -10 -6 -16t-16 -6h-17q-10 0 -16 6t-6 16v440h-221v-440q0 -10 -6 -16t-16 -6h-17z" />
    <glyph glyph-name=".notdef" horiz-adv-x="695" 
d="M102 -117q-22 0 -22 22v891q0 22 22 22h491q22 0 22 -22v-891q0 -22 -22 -22h-491zM181 -59h373v762zM141 -9l377 769h-377v-769z" />
    <glyph glyph-name=".null" 
 />
    <glyph glyph-name="nonmarkingreturn" horiz-adv-x="333" 
 />
    <glyph glyph-name="CR" unicode="&#xd;" horiz-adv-x="258" 
 />
    <glyph glyph-name="space" unicode=" " horiz-adv-x="258" 
 />
    <glyph glyph-name="exclam" unicode="!" horiz-adv-x="225" 
d="M104 143q-10 0 -16 6t-6 16v513q0 10 6 16t16 6h17q10 0 16 -6t6 -16v-513q0 -10 -6 -16t-16 -6h-17zM93 0q-10 0 -16 6t-6 16v38q0 10 6 16.5t16 6.5h38q10 0 16.5 -6.5t6.5 -16.5v-38q0 -10 -6.5 -16t-16.5 -6h-38z" />
    <glyph glyph-name="quotedbl" unicode="&#x22;" horiz-adv-x="340" 
d="M227 508q-8 0 -12 5.5t-5 13.5l-15 163q-1 9 4.5 14.5t14.5 5.5h45q9 0 14.5 -5.5t4.5 -14.5l-15 -163q-1 -8 -5 -13.5t-12 -5.5h-19zM94 508q-8 0 -12 5.5t-5 13.5l-15 163q-1 9 4.5 14.5t14.5 5.5h45q9 0 14.5 -5.5t4.5 -14.5l-15 -163q-1 -8 -5 -13.5t-12 -5.5h-19z
" />
    <glyph glyph-name="numbersign" unicode="#" horiz-adv-x="701" 
d="M185 39q-9 0 -15 6t-5 15l20 131h-111q-10 0 -16 6t-6 16v14q0 10 6 16t16 6h119l29 196h-122q-10 0 -16 6t-6 16v14q0 10 6 16t16 6h131l20 131q2 8 7 14.5t15 6.5h18q9 0 15 -6t5 -15l-20 -131h167l20 131q2 8 7 14.5t15 6.5h18q9 0 15 -6t5 -15l-20 -131h109
q10 0 16 -6t6 -16v-14q0 -10 -6 -16t-16 -6h-117l-29 -196h120q10 0 16 -6t6 -16v-14q0 -10 -6 -16t-16 -6h-129l-19 -131q-3 -21 -23 -21h-18q-9 0 -15 6t-5 15l20 131h-167l-19 -131q-3 -21 -23 -21h-18zM254 249h166l29 196h-166z" />
    <glyph glyph-name="dollar" unicode="$" horiz-adv-x="596" 
d="M289 -100q-10 0 -16 6t-6 16v70q-71 5 -120 31.5t-75 65t-28 81.5q0 8 6 14t15 6h20q10 0 15.5 -6t6.5 -14q4 -28 25 -55.5t62 -46t106 -18.5q98 0 143 35.5t45 95.5q0 40 -23.5 64.5t-71.5 44t-123 43.5q-71 23 -117 47.5t-67.5 59.5t-21.5 90q0 71 52.5 121.5
t150.5 57.5v69q0 10 6 16t16 6h19q10 0 16 -6t6 -16v-70q67 -6 111 -34t66.5 -65.5t23.5 -73.5q0 -7 -5 -13.5t-16 -6.5h-20q-5 0 -12.5 4t-9.5 16q-6 50 -52.5 82.5t-120.5 32.5t-121 -29t-47 -91q0 -40 21 -65.5t66 -45t116 -42.5q75 -24 124 -48t73 -58.5t24 -89.5
q0 -56 -26.5 -97t-76 -64.5t-118.5 -28.5v-69q0 -10 -6 -16t-16 -6h-19z" />
    <glyph glyph-name="percent" unicode="%" horiz-adv-x="741" 
d="M108 0q-20 0 -20 20q0 6 4 11l493 650q7 9 13.5 14t19.5 5h17q20 0 20 -20q0 -6 -4 -11l-493 -650q-7 -9 -13 -14t-20 -5h-17zM547 -6q-65 0 -101 37.5t-39 97.5q-1 26 -1 43.5t1 45.5q3 60 37 98t103 38t103 -38t37 -98q2 -28 2 -45.5t-2 -43.5q-3 -60 -39 -97.5
t-101 -37.5zM547 50q30 0 47.5 12.5t25.5 31.5t9 38q2 28 2 42.5t-2 40.5q-1 30 -19.5 56.5t-62.5 26.5t-62 -26.5t-20 -56.5q-1 -26 -1 -40.5t1 -42.5q2 -19 9.5 -38t25 -31.5t47.5 -12.5zM194 350q-65 0 -101 35t-39 95q-1 26 -1 43.5t1 45.5q3 60 37 98t103 38t103 -38
t37 -98q2 -28 2 -45.5t-2 -43.5q-3 -60 -39 -95t-101 -35zM194 401q30 0 47.5 12.5t25.5 31.5t9 38q2 28 2 42.5t-2 40.5q-1 30 -19.5 56.5t-62.5 26.5t-62 -26.5t-20 -56.5q-1 -26 -1 -40.5t1 -42.5q2 -19 9.5 -38t25 -31.5t47.5 -12.5z" />
    <glyph glyph-name="ampersand" unicode="&#x26;" horiz-adv-x="674" 
d="M281 -10q-64 0 -114 25t-78 69t-28 100q0 47 20.5 81.5t53.5 61t70 48.5q-51 54 -72 92.5t-21 82.5t22.5 80t62 58t89.5 22q51 0 90 -21t61.5 -57t22.5 -82t-22.5 -79.5t-58.5 -59t-76 -48.5l191 -187q20 34 34.5 75t20.5 93q2 22 22 22h19q10 0 16 -6t6 -16
q-1 -23 -5 -48t-12.5 -52.5t-21.5 -55.5t-33 -57l98 -96q9 -9 9 -16q0 -9 -5 -14t-15 -5h-22q-10 0 -16.5 3t-11.5 7l-74 74q-38 -40 -93 -67t-129 -27zM281 50q45 0 91 19.5t85 59.5l-210 203q-50 -28 -86.5 -62t-36.5 -86q0 -43 22 -73t58 -45.5t77 -15.5zM260 407
q36 20 67.5 40.5t50.5 45.5t19 57q0 46 -32 73t-79 27q-44 0 -77.5 -26.5t-33.5 -73.5q0 -20 7 -39.5t25.5 -43.5t52.5 -60z" />
    <glyph glyph-name="quotesingle" unicode="'" horiz-adv-x="207" 
d="M94 508q-8 0 -12 5.5t-5 13.5l-15 163q-1 9 4.5 14.5t14.5 5.5h45q9 0 14.5 -5.5t4.5 -14.5l-15 -163q-1 -8 -5 -13.5t-12 -5.5h-19z" />
    <glyph glyph-name="parenleft" unicode="(" horiz-adv-x="319" 
d="M272 -159q-63 0 -104 28t-63.5 85t-31.5 145.5t-9 209.5t9 209.5t31.5 145.5t63.5 84.5t104 27.5q9 0 15.5 -6.5t6.5 -15.5v-14q0 -9 -6 -15.5t-13 -6.5q-42 0 -71 -19.5t-47 -66t-26 -125.5t-8 -198t8 -198t26 -125.5t47 -66.5t71 -20q7 0 13 -6.5t6 -15.5v-14
q0 -9 -6.5 -15.5t-15.5 -6.5z" />
    <glyph glyph-name="parenright" unicode=")" horiz-adv-x="319" 
d="M47 -159q-9 0 -15.5 6.5t-6.5 15.5v14q0 9 6 15.5t13 6.5q42 0 71 20t47 66.5t26 125.5t8 198t-8 198t-26 125.5t-47 66t-71 19.5q-7 0 -13 6.5t-6 15.5v14q0 9 6.5 15.5t15.5 6.5q63 0 104 -27.5t63.5 -84.5t31.5 -145.5t9 -209.5t-9 -209.5t-31.5 -145.5t-63.5 -85
t-104 -28z" />
    <glyph glyph-name="asterisk" unicode="*" horiz-adv-x="446" 
d="M142 423l-32 24q-7 5 -8 14.5t3 15.5q0 1 6 7l76 72l-104 13q-4 1 -5.5 1.5t-2.5 0.5q-7 2 -11.5 10.5t-2.5 17.5l13 38q2 8 11 12t16 2q1 0 8 -4l92 -50l-19 103q-1 4 -1 5.5v2.5q0 8 6.5 15t15.5 7h40q9 0 15.5 -7t6.5 -15v-2.5t-1 -5.5l-20 -104l93 51q7 4 8 4
q8 2 16.5 -2t10.5 -12l13 -38q2 -9 -2 -17.5t-12 -10.5q-1 0 -2.5 -0.5t-5.5 -1.5l-105 -14l77 -71q6 -6 6 -7q5 -6 4 -15.5t-9 -14.5l-32 -24q-8 -4 -17 -3t-14 8q0 1 -1 2t-3 5l-46 96l-46 -96q-1 -4 -2.5 -5t-1.5 -2q-4 -7 -13.5 -8t-17.5 3z" />
    <glyph glyph-name="plus" unicode="+" horiz-adv-x="628" 
d="M306 33q-10 0 -16 6t-6 16v219h-217q-10 0 -16 6t-6 16v14q0 10 6 16t16 6h217v213q0 10 6 16t16 6h15q10 0 16 -6t6 -16v-213h218q10 0 16 -6t6 -16v-14q0 -10 -6 -16t-16 -6h-218v-219q0 -10 -6 -16t-16 -6h-15z" />
    <glyph glyph-name="comma" unicode="," horiz-adv-x="237" 
d="M73 -75q-8 0 -11.5 6t-2.5 15l19 120q2 12 7.5 19.5t17.5 7.5h45q7 0 11 -5t4 -11q0 -9 -4 -18l-43 -113q-4 -10 -9.5 -15.5t-16.5 -5.5h-17z" />
    <glyph glyph-name="hyphen" unicode="-" horiz-adv-x="487" 
d="M96 271q-10 0 -16 6t-6 16v14q0 10 6 16t16 6h295q10 0 16 -6t6 -16v-14q0 -10 -6 -16t-16 -6h-295z" />
    <glyph glyph-name="period" unicode="." horiz-adv-x="238" 
d="M95 0q-10 0 -16 6t-6 16v48q0 10 6 16.5t16 6.5h48q10 0 16.5 -6.5t6.5 -16.5v-48q0 -10 -6.5 -16t-16.5 -6h-48z" />
    <glyph glyph-name="slash" unicode="/" horiz-adv-x="459" 
d="M47 -84q-8 0 -14 6t-6 14q0 5 3 12l344 823q2 4 7 9.5t15 5.5h17q8 0 14 -6t6 -14q0 -4 -3 -12l-344 -823q-1 -4 -6.5 -9.5t-15.5 -5.5h-17z" />
    <glyph glyph-name="zero" unicode="0" horiz-adv-x="616" 
d="M308 -10q-68 0 -113.5 22t-73 60.5t-39.5 88.5t-14 105q0 27 -0.5 55t0 56.5t0.5 56.5q1 55 13.5 105t40 88.5t73 60.5t113.5 22t113.5 -22t73 -60.5t40 -88.5t13.5 -105q1 -28 1 -56.5v-56.5t-1 -55q-1 -55 -13.5 -105t-40 -88.5t-73 -60.5t-113.5 -22zM308 50
q89 0 132 59t45 162q1 29 1 54.5v51t-1 52.5q-2 101 -45 161t-132 60q-88 0 -131.5 -60t-45.5 -161q0 -27 -0.5 -52.5t0 -51t0.5 -54.5q2 -103 45.5 -162t131.5 -59z" />
    <glyph glyph-name="one" unicode="1" horiz-adv-x="398" 
d="M276 0q-10 0 -16 6t-6 16v596l-179 -138q-8 -6 -16.5 -5t-14.5 9l-11 14q-6 8 -5 16.5t9 14.5l213 164q7 5 13 6t13 1h19q10 0 16 -6t6 -16v-656q0 -10 -6 -16t-16 -6h-19z" />
    <glyph glyph-name="two" unicode="2" horiz-adv-x="560" 
d="M74 0q-10 0 -16 6t-6 16v15q0 10 5.5 19.5t19.5 22.5l259 259q38 35 58 61t27.5 51.5t7.5 56.5q0 67 -38.5 105t-109.5 38q-45 0 -78 -18t-52 -50.5t-25 -75.5q-1 -12 -9 -17.5t-14 -5.5h-20q-10 0 -15.5 5.5t-5.5 13.5q1 34 14 70.5t39.5 67.5t67.5 50.5t98 19.5
q76 0 122.5 -29t67.5 -75t21 -99q0 -41 -12 -75.5t-36 -67t-61 -66.5l-234 -238h335q11 0 17 -6t6 -17v-15q0 -10 -6 -16t-17 -6h-410z" />
    <glyph glyph-name="three" unicode="3" horiz-adv-x="576" 
d="M286 -10q-56 0 -100 14.5t-74.5 38.5t-47 54.5t-17.5 63.5q0 9 6 14t15 5h14q8 0 15.5 -4t11.5 -19q11 -43 39.5 -66.5t65 -32t72.5 -8.5q77 0 126.5 37t49.5 111t-44.5 106t-121.5 32h-88q-10 0 -16 6t-6 16v15q0 8 2.5 13.5t6.5 10.5l206 243h-302q-10 0 -16 6t-6 16
v15q0 11 6 17t16 6h373q11 0 17 -6t6 -17v-15q0 -6 -2.5 -10.5t-5.5 -8.5l-211 -247h20q69 0 120.5 -21.5t80 -65.5t28.5 -111q0 -66 -31 -112.5t-85 -71t-123 -24.5z" />
    <glyph glyph-name="four" unicode="4" horiz-adv-x="595" 
d="M406 0q-10 0 -16 6t-6 16v158h-330q-10 0 -16 6t-6 16v16q0 2 2 11t9 19l304 435q12 17 37 17h41q10 0 16 -6t6 -16v-438h91q10 0 16 -6t6 -16v-16q0 -10 -6 -16t-16 -6h-91v-158q0 -10 -6 -16t-16 -6h-19zM111 240h273v389z" />
    <glyph glyph-name="five" unicode="5" horiz-adv-x="572" 
d="M280 -10q-73 0 -123.5 27t-77.5 69.5t-29 88.5q-1 9 5 14t15 5h19q8 0 14.5 -4t10.5 -19q11 -43 36.5 -70t59.5 -39t70 -12q49 0 89.5 20t64.5 59t24 95q0 52 -24 88.5t-64.5 56t-89.5 19.5q-37 0 -61 -9t-40 -21t-29 -21t-29 -9h-18q-9 0 -16 6.5t-6 15.5l30 327
q1 11 6.5 17t15.5 6h326q10 0 16 -6t6 -16v-16q0 -10 -6 -16t-16 -6h-287l-21 -226q11 7 42 20.5t87 13.5q50 0 93.5 -14.5t77 -43t52 -70t18.5 -96.5q0 -78 -32.5 -130t-87 -78t-121.5 -26z" />
    <glyph glyph-name="six" unicode="6" horiz-adv-x="582" 
d="M298 -10q-80 0 -134 34t-81.5 88t-27.5 114q0 29 6.5 55.5t16.5 49.5t20.5 41.5t19.5 30.5l197 277q5 5 11.5 12.5t19.5 7.5h19q9 0 14.5 -6.5t5.5 -15.5q0 -4 -1.5 -7.5t-3.5 -5.5l-150 -212q14 4 33 6t35 2q60 0 105.5 -19.5t76 -52.5t46 -75.5t15.5 -87.5
q0 -60 -27.5 -114t-81.5 -88t-134 -34zM298 50q47 0 88 20t66.5 59.5t25.5 96.5t-25.5 96t-66.5 59t-88 20t-88 -20t-66.5 -59t-25.5 -96t25.5 -96.5t66.5 -59.5t88 -20z" />
    <glyph glyph-name="seven" unicode="7" horiz-adv-x="487" 
d="M153 0q-9 0 -14.5 6.5t-5.5 15.5q0 3 2 9l257 609h-341q-10 0 -16 6t-6 16v15q0 11 6 17t16 6h386q11 0 17 -6t6 -17v-15q0 -12 -1.5 -19.5t-5.5 -17.5l-253 -600q-4 -8 -9.5 -16.5t-16.5 -8.5h-21z" />
    <glyph glyph-name="eight" unicode="8" horiz-adv-x="618" 
d="M309 -10q-51 0 -96.5 13.5t-79.5 40t-53.5 65t-19.5 88.5q0 64 31 108.5t82 68.5q-40 23 -64 61t-24 91q0 61 30 101.5t81 61.5t113 21t113 -21t81 -61.5t30 -101.5q0 -53 -24 -91t-64 -61q51 -24 82 -68.5t31 -108.5q0 -67 -33.5 -113t-90 -70t-125.5 -24zM309 50
q52 0 94 18t67 51t25 78q0 46 -25 78.5t-67 50t-94 17.5q-51 0 -93.5 -17.5t-67.5 -50t-25 -78.5q0 -45 25 -78t67.5 -51t93.5 -18zM309 403q43 1 79.5 16t59 42t22.5 65q0 39 -21.5 66.5t-58 42.5t-81.5 15q-44 0 -81 -15t-58.5 -42.5t-21.5 -66.5t21.5 -66.5t58.5 -42
t81 -14.5z" />
    <glyph glyph-name="nine" unicode="9" horiz-adv-x="572" 
d="M201 0q-9 0 -14.5 6.5t-5.5 15.5q0 5 2 8t3 5l158 222q-30 -8 -65 -8q-60 0 -104.5 20t-74 53.5t-44 74t-14.5 82.5t14.5 83t44 74.5t74 53.5t104.5 20t104.5 -20t74.5 -53.5t44.5 -74.5t14.5 -83q0 -39 -10 -71t-23.5 -56t-25.5 -41l-206 -291q-4 -5 -10.5 -12.5
t-20.5 -7.5h-20zM279 309q47 0 87 21t64 59t24 90q0 53 -24 91t-64 59t-87 21t-86.5 -21t-63.5 -59t-24 -91q0 -52 24 -90t63.5 -59t86.5 -21z" />
    <glyph glyph-name="colon" unicode=":" horiz-adv-x="241" 
d="M96 350q-10 0 -16 6t-6 16v48q0 10 6 16.5t16 6.5h48q10 0 16.5 -6.5t6.5 -16.5v-48q0 -10 -6.5 -16t-16.5 -6h-48zM96 0q-10 0 -16 6t-6 16v48q0 10 6 16.5t16 6.5h48q10 0 16.5 -6.5t6.5 -16.5v-48q0 -10 -6.5 -16t-16.5 -6h-48z" />
    <glyph glyph-name="semicolon" unicode=";" horiz-adv-x="259" 
d="M88 -75q-8 0 -11.5 6t-2.5 15l19 120q2 12 7.5 19.5t17.5 7.5h45q7 0 11 -5t4 -11q0 -9 -4 -18l-43 -113q-4 -10 -9.5 -15.5t-16.5 -5.5h-17zM108 350q-10 0 -16 6t-6 16v48q0 10 6 16.5t16 6.5h48q10 0 16.5 -6.5t6.5 -16.5v-48q0 -10 -6.5 -16t-16.5 -6h-48z" />
    <glyph glyph-name="less" unicode="&#x3c;" horiz-adv-x="481" 
d="M390 33q-7 0 -14.5 4.5l-12.5 7.5l-295 204q-16 11 -22.5 22t-6.5 24v12q0 14 6.5 24.5t22.5 21.5l295 204l12.5 7.5t14.5 4.5q8 0 14 -5t6 -15v-17q0 -10 -4.5 -16.5t-16.5 -14.5l-289 -200l289 -200q12 -8 16.5 -14.5t4.5 -16.5v-17q0 -10 -6 -15t-14 -5z" />
    <glyph glyph-name="equal" unicode="=" horiz-adv-x="571" 
d="M98 396q-10 0 -16 6t-6 16v14q0 10 6 16t16 6h375q10 0 16 -6t6 -16v-14q0 -10 -6 -16t-16 -6h-375zM98 146q-10 0 -16 6t-6 16v14q0 10 6 16t16 6h375q10 0 16 -6t6 -16v-14q0 -10 -6 -16t-16 -6h-375z" />
    <glyph glyph-name="greater" unicode="&#x3e;" horiz-adv-x="480" 
d="M91 34q-8 0 -14 5t-6 15v17q0 10 4.5 16.5t16.5 14.5l289 200l-289 200q-12 8 -16.5 14.5t-4.5 16.5v17q0 10 6 15t14 5q7 0 15 -4.5t12 -7.5l295 -204q16 -11 22.5 -21.5t6.5 -24.5v-12q0 -13 -6.5 -24t-22.5 -22l-295 -204q-4 -3 -12 -7.5t-15 -4.5z" />
    <glyph glyph-name="question" unicode="?" horiz-adv-x="503" 
d="M247 143q-10 0 -16 6t-6 16v24v24q0 46 17 81t42 63.5t51 54t45 52.5t23 58q5 42 -16 71t-57 44t-75 15q-58 0 -102 -31t-57 -108q-2 -13 -9 -17.5t-15 -4.5h-16q-9 0 -15 5.5t-6 14.5q1 42 17.5 78t46 63t69 42.5t87.5 15.5q55 0 95.5 -16t66.5 -42.5t38 -60t9 -68.5
q-3 -42 -22 -74.5t-45 -60t-51.5 -54t-42.5 -56t-17 -65.5v-24v-24q0 -10 -6 -16t-16 -6h-17zM235 0q-10 0 -16 6t-6 16v38q0 10 6 16.5t16 6.5h38q10 0 16.5 -6.5t6.5 -16.5v-38q0 -10 -6.5 -16t-16.5 -6h-38z" />
    <glyph glyph-name="at" unicode="@" horiz-adv-x="826" 
d="M403 -113q-100 0 -172.5 34.5t-114 101.5t-52.5 164q-1 14 -2 37.5t-1 49.5t1 48.5t2 35.5q8 71 34 127.5t69 95.5t102 59.5t134 20.5q86 0 150.5 -20t109 -58.5t68 -95t26.5 -129.5q2 -27 2 -54.5t-0.5 -49t-1.5 -29.5q-3 -48 -18 -80.5t-42.5 -49t-68.5 -16.5
q-33 0 -55 12t-34 26t-17 21q-8 -13 -22.5 -29.5t-39.5 -28t-63 -11.5q-74 0 -119 52.5t-45 151.5t45.5 152t118.5 53q42 0 66 -16t37 -33v19q0 10 6 16t16 6h17q10 0 16 -6t6 -16v-218q0 -47 19.5 -70t47.5 -23q30 0 44.5 17.5t19 40t4.5 36.5q1 12 2 47t-2 75
q-6 80 -37.5 136t-93.5 85t-162 29q-81 0 -140 -29.5t-93.5 -85t-44.5 -135.5q-2 -17 -2.5 -48t0 -62.5t2.5 -50.5q13 -118 84.5 -182.5t193.5 -64.5q76 0 120 13.5t67 30.5t35 26q4 3 9.5 7.5t14.5 4.5h26q9 0 15 -6t6 -15q0 -4 -1.5 -7.5t-3.5 -6.5q-26 -27 -63.5 -51
t-92 -39t-132.5 -15zM397 127q59 0 81 41t22 105t-22 105.5t-81 41.5q-57 0 -80 -41.5t-23 -105.5q0 -37 10 -70.5t32.5 -54.5t60.5 -21z" />
    <glyph glyph-name="A" unicode="A" horiz-adv-x="650" 
d="M44 0q-8 0 -14 6t-6 14q0 5 2 11l253 649q4 10 10.5 15t18.5 5h34q12 0 18.5 -5t10.5 -15l253 -649q2 -6 2 -11q0 -8 -6 -14t-14 -6h-20q-10 0 -15 5.5t-7 9.5l-62 160h-354l-62 -160q-1 -4 -6.5 -9.5t-15.5 -5.5h-20zM172 235h306l-153 394z" />
    <glyph glyph-name="B" unicode="B" horiz-adv-x="653" 
d="M116 0q-10 0 -16 6t-6 16v655q0 11 6 17t16 6h261q70 0 114.5 -25t65.5 -65.5t21 -88.5q0 -43 -13.5 -73.5t-34 -49.5t-40.5 -29q40 -20 71 -64t31 -107q0 -50 -23.5 -95.5t-70 -74t-114.5 -28.5h-268zM157 60h217q74 0 114.5 39t40.5 99q0 61 -40.5 99.5t-114.5 38.5
h-217v-276zM157 396h207q74 0 112.5 33t38.5 92t-38.5 89t-112.5 30h-207v-244z" />
    <glyph glyph-name="C" unicode="C" horiz-adv-x="651" 
d="M331 -10q-91 0 -148.5 35.5t-85.5 96.5t-31 139q-1 41 -1 88t1 90q3 78 31 139.5t85.5 96.5t148.5 35q71 0 121 -20t81.5 -52.5t47 -70t17.5 -73.5q1 -9 -5.5 -14.5t-15.5 -5.5h-20q-8 0 -14 4.5t-8 16.5q-19 89 -71.5 122t-132.5 33q-91 0 -144.5 -51.5t-57.5 -164.5
q-3 -82 0 -168q4 -113 57.5 -164.5t144.5 -51.5q80 0 132.5 33t71.5 122q2 12 8 16.5t14 4.5h20q9 0 15.5 -5.5t5.5 -14.5q-2 -36 -17.5 -73.5t-47 -70t-81.5 -52.5t-121 -20z" />
    <glyph glyph-name="D" unicode="D" horiz-adv-x="677" 
d="M116 0q-10 0 -16 6t-6 16v655q0 11 6 17t16 6h213q106 0 166 -31t85.5 -91.5t26.5 -147.5q1 -45 1 -79.5t-1 -79.5q-2 -92 -27 -152t-84 -89.5t-162 -29.5h-218zM157 60h172q80 0 126.5 21.5t67 69t21.5 125.5q1 30 1 52.5v44.5t-1 52q-2 110 -51 162.5t-169 52.5h-167
v-580z" />
    <glyph glyph-name="E" unicode="E" horiz-adv-x="592" 
d="M116 0q-10 0 -16 6t-6 16v655q0 11 6 17t16 6h390q11 0 17 -6t6 -17v-15q0 -10 -6 -16t-17 -6h-349v-255h327q11 0 17 -6t6 -17v-15q0 -10 -6 -16t-17 -6h-327v-265h357q11 0 17 -6t6 -17v-15q0 -10 -6 -16t-17 -6h-398z" />
    <glyph glyph-name="F" unicode="F" horiz-adv-x="570" 
d="M116 0q-10 0 -16 6t-6 16v655q0 11 6 17t16 6h386q11 0 17 -6t6 -17v-15q0 -10 -6 -16t-17 -6h-345v-269h325q11 0 17 -6t6 -17v-15q0 -10 -6 -16t-17 -6h-325v-289q0 -10 -6 -16t-17 -6h-18z" />
    <glyph glyph-name="G" unicode="G" horiz-adv-x="664" 
d="M334 -10q-86 0 -144.5 33.5t-89 93.5t-33.5 138q-1 45 -1 95t1 95q3 79 33.5 138.5t89.5 93t144 33.5q69 0 118 -20.5t80 -51t46 -61.5t16 -52q1 -9 -5 -14.5t-16 -5.5h-22q-9 0 -13 4.5t-8 15.5q-10 31 -33.5 59.5t-63 47t-99.5 18.5q-89 0 -144.5 -48.5t-59.5 -161.5
q-3 -90 0 -180q4 -112 59.5 -161t144.5 -49q59 0 106 22.5t74 69t27 118.5v51h-174q-10 0 -16 6.5t-6 16.5v14q0 11 6 17t16 6h214q11 0 17 -6t6 -17v-88q0 -80 -31.5 -141t-92 -95t-146.5 -34z" />
    <glyph glyph-name="H" unicode="H" horiz-adv-x="700" 
d="M116 0q-10 0 -16 6t-6 16v655q0 11 6 17t16 6h18q11 0 17 -6t6 -17v-292h386v292q0 11 6 17t16 6h18q11 0 17 -6t6 -17v-655q0 -10 -6 -16t-17 -6h-18q-10 0 -16 6t-6 16v303h-386v-303q0 -10 -6 -16t-17 -6h-18z" />
    <glyph glyph-name="I" unicode="I" horiz-adv-x="251" 
d="M116 0q-10 0 -16 6t-6 16v656q0 10 6 16t16 6h19q10 0 16 -6t6 -16v-656q0 -10 -6 -16t-16 -6h-19z" />
    <glyph glyph-name="J" unicode="J" horiz-adv-x="618" 
d="M288 -10q-49 0 -92 12t-76.5 37t-53 63.5t-21.5 91.5q0 9 5.5 15.5t15.5 6.5h20q10 0 15.5 -6t6.5 -15q4 -52 29.5 -84t65 -46.5t85.5 -14.5q88 0 133.5 57.5t45.5 148.5v384h-369q-10 0 -16 6t-6 16v16q0 10 6 16t16 6h409q11 0 17 -6t6 -17v-422q0 -78 -28 -138
t-81.5 -93.5t-132.5 -33.5z" />
    <glyph glyph-name="K" unicode="K" horiz-adv-x="575" 
d="M116 0q-10 0 -16 6t-6 16v655q0 11 6 17t16 6h18q11 0 17 -6t6 -17v-260l303 268q4 3 13 9t25 6h16q8 0 14 -6t6 -14t-5 -13l-339 -302l360 -331q6 -6 6 -14t-6 -14t-14 -6h-17q-16 0 -25 6t-13 9l-324 296v-289q0 -10 -6 -16t-17 -6h-18z" />
    <glyph glyph-name="L" unicode="L" horiz-adv-x="548" 
d="M116 0q-10 0 -16 6t-6 16v656q0 10 6 16t16 6h19q10 0 16 -6t6 -16v-618h345q11 0 17 -6t6 -17v-15q0 -10 -6 -16t-17 -6h-386z" />
    <glyph glyph-name="M" unicode="M" horiz-adv-x="780" 
d="M117 0q-10 0 -16.5 6t-6.5 16v655q0 11 6.5 17t16.5 6h25q10 0 15 -5t6 -8l227 -442l228 442q2 3 6.5 8t14.5 5h24q11 0 17 -6t6 -17v-655q0 -10 -6 -16t-17 -6h-18q-10 0 -16 6t-6 16v542l-191 -376q-4 -10 -11.5 -15t-19.5 -5h-22q-12 0 -19 5t-12 15l-191 376v-542
q0 -10 -6 -16t-16 -6h-18z" />
    <glyph glyph-name="N" unicode="N" horiz-adv-x="684" 
d="M116 0q-10 0 -16 6t-6 16v655q0 11 6 17t16 6h21q10 0 15 -5t6 -7l369 -564v553q0 11 6 17t16 6h18q11 0 17 -6t6 -17v-654q0 -10 -6 -16.5t-16 -6.5h-22q-10 0 -14.5 5t-6.5 7l-368 562v-552q0 -10 -6 -16t-17 -6h-18z" />
    <glyph glyph-name="O" unicode="O" horiz-adv-x="662" 
d="M331 -10q-83 0 -141 29.5t-89 91t-34 155.5q-1 45 -1 84t1 84q3 93 36 154.5t91.5 91.5t136.5 30t136.5 -30t92 -91.5t35.5 -154.5q2 -45 2 -84t-2 -84q-2 -94 -33.5 -155.5t-89.5 -91t-141 -29.5zM331 50q86 0 141.5 52t59.5 169q2 45 2 79t-2 79q-2 78 -28.5 127
t-71 71.5t-101.5 22.5q-56 0 -100.5 -22.5t-71 -71.5t-29.5 -127q-1 -45 -1 -79t1 -79q4 -117 60 -169t141 -52z" />
    <glyph glyph-name="P" unicode="P" horiz-adv-x="628" 
d="M116 0q-10 0 -16 6t-6 16v655q0 11 6 17t16 6h243q70 0 121.5 -23.5t80 -69.5t28.5 -114t-28.5 -114t-80 -69.5t-121.5 -23.5h-202v-264q0 -10 -6 -16t-17 -6h-18zM157 346h197q87 0 129.5 38t42.5 109t-42.5 109t-129.5 38h-197v-294z" />
    <glyph glyph-name="Q" unicode="Q" horiz-adv-x="662" 
d="M547 -65q-11 0 -19 8.5t-13 14.5l-44 61q-60 -29 -140 -29q-83 0 -141 29.5t-89 91t-34 155.5q-1 45 -1 84t1 84q3 93 36 154.5t91.5 91.5t136.5 30t136.5 -30t92 -91.5t35.5 -154.5q2 -45 2 -84t-2 -84q-5 -143 -73 -210l64 -90q1 -1 2 -3.5t1 -7.5q0 -8 -6 -14t-14 -6
h-22zM331 50q86 0 141.5 52t59.5 169q2 45 2 79t-2 79q-2 78 -28.5 127t-71 71.5t-101.5 22.5q-56 0 -100.5 -22.5t-71 -71.5t-29.5 -127q-1 -45 -1 -79t1 -79q4 -117 60 -169t141 -52z" />
    <glyph glyph-name="R" unicode="R" horiz-adv-x="640" 
d="M116 0q-10 0 -16 6t-6 16v655q0 11 6 17t16 6h233q105 0 167.5 -50t62.5 -152q0 -80 -40 -128t-111 -65l161 -274q3 -6 3 -11q0 -8 -6 -14t-14 -6h-12q-16 0 -24 8.5t-14 18.5l-159 269h-206v-274q0 -10 -6 -16t-17 -6h-18zM157 356h187q87 0 129.5 35.5t42.5 106.5
t-42.5 106.5t-129.5 35.5h-187v-284z" />
    <glyph glyph-name="S" unicode="S" horiz-adv-x="605" 
d="M304 -10q-81 0 -137.5 26t-86.5 67t-32 87q0 8 6 14t15 6h20q10 0 15.5 -6t6.5 -14q4 -28 25 -55.5t62 -46t106 -18.5q98 0 143 35.5t45 95.5q0 40 -23.5 64.5t-71.5 44t-123 43.5q-71 23 -117 47.5t-67.5 59.5t-21.5 90q0 51 27 91.5t78.5 64.5t125.5 24q59 0 103 -16
t73 -42.5t44 -57t16 -59.5q0 -7 -5 -13.5t-16 -6.5h-20q-5 0 -12.5 4t-9.5 16q-6 50 -52.5 82.5t-120.5 32.5t-121 -29t-47 -91q0 -40 21 -65.5t66 -45t116 -42.5q75 -24 124 -48t73 -58.5t24 -89.5q0 -61 -30.5 -103.5t-86.5 -65t-134 -22.5z" />
    <glyph glyph-name="T" unicode="T" horiz-adv-x="557" 
d="M269 0q-10 0 -16 6t-6 16v618h-198q-10 0 -16 6t-6 16v15q0 11 6 17t16 6h458q11 0 17 -6t6 -17v-15q0 -10 -6 -16t-17 -6h-197v-618q0 -10 -6 -16t-17 -6h-18z" />
    <glyph glyph-name="U" unicode="U" horiz-adv-x="691" 
d="M346 -10q-81 0 -138.5 30t-88.5 92t-31 159v406q0 11 6 17t16 6h18q11 0 17 -6t6 -17v-409q0 -112 52.5 -165t142.5 -53q89 0 141.5 53t52.5 165v409q0 11 6.5 17t16.5 6h18q10 0 16 -6t6 -17v-406q0 -97 -30.5 -159t-87.5 -92t-139 -30z" />
    <glyph glyph-name="V" unicode="V" horiz-adv-x="638" 
d="M305 0q-13 0 -21 6t-13 18l-232 645q-2 6 -2 11q0 8 6 14t14 6h21q10 0 15.5 -5.5t6.5 -9.5l219 -612l219 612q2 4 7 9.5t15 5.5h21q8 0 14 -6t6 -14q0 -5 -2 -11l-232 -645q-4 -12 -12 -18t-22 -6h-28z" />
    <glyph glyph-name="W" unicode="W" horiz-adv-x="788" 
d="M215 0q-12 0 -18.5 5.5t-9.5 18.5l-137 644q-1 4 -1.5 7.5t-0.5 4.5q0 8 6 14t14 6h21q19 0 22 -15l117 -570l124 407q3 9 10.5 16t20.5 7h22q14 0 21 -7t10 -16l124 -407l117 570q3 15 22 15h21q8 0 14 -6t6 -14q0 -1 -0.5 -4.5t-1.5 -7.5l-137 -644q-3 -13 -9.5 -18.5
t-18.5 -5.5h-15q-12 0 -19.5 6t-11.5 18l-133 422l-133 -422q-4 -12 -11.5 -18t-19.5 -6h-15z" />
    <glyph glyph-name="X" unicode="X" horiz-adv-x="609" 
d="M50 0q-8 0 -14 6t-6 14q0 4 1.5 7.5t2.5 5.5l233 323l-224 311q-4 6 -4 13q0 8 6 14t14 6h24q7 0 12.5 -3.5t10.5 -11.5l201 -280l197 280q5 8 10.5 11.5t12.5 3.5h22q8 0 14 -6t6 -14q0 -7 -4 -13l-221 -313l232 -321q2 -2 3 -5.5t1 -7.5q0 -8 -6 -14t-14 -6h-24
q-7 0 -12.5 4t-10.5 11l-209 289l-209 -289q-5 -7 -10.5 -11t-12.5 -4h-22z" />
    <glyph glyph-name="Y" unicode="Y" horiz-adv-x="632" 
d="M306 0q-10 0 -16 6t-6 16v245l-244 400q-1 3 -2.5 6t-1.5 7q0 8 6 14t14 6h20q7 0 13 -3.5t10 -11.5l217 -353l217 353q5 8 10.5 11.5t12.5 3.5h20q8 0 14 -6t6 -14q0 -4 -1 -7t-3 -6l-244 -400v-245q0 -10 -6 -16t-17 -6h-19z" />
    <glyph glyph-name="Z" unicode="Z" horiz-adv-x="579" 
d="M64 0q-10 0 -16 6.5t-6 16.5v20q0 15 6 24.5t9 13.5l394 559h-378q-10 0 -16 6t-6 16v15q0 11 6 17t16 6h431q11 0 17 -6t6 -17v-20q0 -13 -4 -21t-9 -15l-392 -561h392q11 0 17 -6t6 -17v-15q0 -10 -6 -16t-17 -6h-450z" />
    <glyph glyph-name="bracketleft" unicode="[" horiz-adv-x="301" 
d="M100 -159q-10 0 -16 6t-6 16v891q0 10 6 16t16 6h151q10 0 16 -6t6 -16v-14q0 -10 -6 -16t-16 -6h-112v-819h112q10 0 16 -6t6 -16v-14q0 -10 -6 -16t-16 -6h-151z" />
    <glyph glyph-name="backslash" unicode="\" horiz-adv-x="459" 
d="M395 -84q-10 0 -15 5.5t-7 9.5l-344 823q-3 8 -3 12q0 8 6 14t14 6h17q10 0 15.5 -5.5t6.5 -9.5l344 -823q3 -7 3 -12q0 -8 -6 -14t-14 -6h-17z" />
    <glyph glyph-name="bracketright" unicode="]" horiz-adv-x="301" 
d="M50 -159q-10 0 -16 6t-6 16v14q0 10 6 16t16 6h112v819h-112q-10 0 -16 6t-6 16v14q0 10 6 16t16 6h151q10 0 16 -6t6 -16v-891q0 -10 -6 -16t-16 -6h-151z" />
    <glyph glyph-name="asciicircum" unicode="^" horiz-adv-x="418" 
d="M87 575q-14 0 -14 11q0 8 12 20l87 85q11 11 18 12.5t14 1.5h10q8 0 15 -1.5t17 -12.5l87 -85q12 -12 12 -20q0 -11 -14 -11h-17q-6 0 -13.5 2t-11.5 5l-80 60l-80 -60q-4 -3 -11.5 -5t-13.5 -2h-17z" />
    <glyph glyph-name="underscore" unicode="_" horiz-adv-x="753" 
d="M89 -28q-10 0 -16 6t-6 16v14q0 10 6 16t16 6h575q10 0 16 -6t6 -16v-14q0 -10 -6 -16t-16 -6h-575z" />
    <glyph glyph-name="grave" unicode="`" horiz-adv-x="311" 
d="M215 595q-10 0 -16.5 1.5t-14.5 8.5l-109 89q-5 5 -5 12q0 19 19 19h41q15 0 22 -4t15 -14l69 -83q5 -5 5 -13q0 -16 -16 -16h-10z" />
    <glyph glyph-name="a" unicode="a" horiz-adv-x="536" 
d="M221 -10q-48 0 -88.5 20t-65.5 53.5t-25 75.5q0 68 55 109t143 53l158 22v35q0 53 -32.5 83.5t-103.5 30.5q-52 0 -84 -20.5t-44 -53.5q-5 -15 -19 -15h-16q-12 0 -17 6.5t-5 15.5q0 14 10.5 35t32.5 41.5t57 34.5t85 14q59 0 97.5 -16t60 -41.5t30.5 -56.5t9 -61v-333
q0 -10 -6 -16t-16 -6h-17q-10 0 -16 6t-6 16v47q-12 -18 -34 -36t-56.5 -30.5t-86.5 -12.5zM231 48q46 0 84 20t60.5 61.5t22.5 104.5v34l-129 -18q-82 -11 -124 -38t-42 -68q0 -33 19 -54t48.5 -31.5t60.5 -10.5z" />
    <glyph glyph-name="b" unicode="b" horiz-adv-x="580" 
d="M311 -10q-62 0 -102.5 22.5t-65.5 56.5v-47q0 -10 -6 -16t-16 -6h-17q-10 0 -16 6t-6 16v666q0 10 6 16t16 6h17q10 0 16 -6t6 -16v-237q25 33 65.5 56t102.5 23q59 0 99 -21t65 -56t37 -78t13 -87q1 -15 1 -28t-1 -28q-1 -44 -13 -87t-37 -78t-65 -56t-99 -21zM305 48
q59 0 93 26t49 68t17 90q1 28 0 56q-2 48 -17 90t-49 68t-93 26q-55 0 -90.5 -26t-53 -65t-18.5 -79q-1 -15 -1 -39t1 -39q2 -41 18.5 -81.5t51.5 -67.5t92 -27z" />
    <glyph glyph-name="c" unicode="c" horiz-adv-x="536" 
d="M278 -10q-70 0 -119 27.5t-74.5 79.5t-27.5 123q-1 15 -1 40t1 40q2 72 27.5 123.5t74.5 79t119 27.5q53 0 91.5 -14.5t63.5 -38t38 -51.5t14 -55q1 -10 -6 -16t-16 -6h-14q-10 0 -14.5 4.5t-9.5 16.5q-21 57 -57.5 79.5t-89.5 22.5q-68 0 -112.5 -41.5t-47.5 -135.5
q-2 -35 0 -70q3 -94 47.5 -135.5t112.5 -41.5q53 0 89.5 22.5t57.5 79.5q5 12 9.5 16.5t14.5 4.5h14q9 0 16 -6t6 -16q-1 -22 -9 -44t-24.5 -43t-40.5 -37t-57.5 -25.5t-75.5 -9.5z" />
    <glyph glyph-name="d" unicode="d" horiz-adv-x="580" 
d="M269 -10q-58 0 -98.5 21t-65.5 56t-36.5 78t-13.5 87q-1 15 -1 28t1 28q2 44 13.5 87t36.5 78t65.5 56t98.5 21q62 0 102.5 -23t65.5 -56v237q0 10 6 16t16 6h17q10 0 16 -6t6 -16v-666q0 -10 -6 -16t-16 -6h-17q-10 0 -16 6t-6 16v47q-25 -34 -65.5 -56.5t-102.5 -22.5z
M275 48q57 0 92 27t52 67.5t18 81.5q1 15 1 39t-1 39q-1 40 -18.5 79t-52.5 65t-91 26q-58 0 -92.5 -26t-49.5 -68t-17 -90q-1 -28 0 -56q2 -48 17 -90t49.5 -68t92.5 -26z" />
    <glyph glyph-name="e" unicode="e" horiz-adv-x="546" 
d="M274 -10q-97 0 -154 63.5t-65 166.5q-1 15 -1 40t1 40q5 68 32 120t74.5 81t112.5 29q70 0 119 -31t75.5 -89t26.5 -138v-15q0 -10 -6.5 -16t-16.5 -6h-356v-4v-6q2 -45 21 -85.5t54 -66t83 -25.5q43 0 71.5 13t45.5 28.5t22 23.5q9 13 14 15.5t16 2.5h16q9 0 15.5 -5.5
t5.5 -14.5q-1 -14 -15.5 -34.5t-41 -40.5t-64.5 -33t-85 -13zM116 291h318v4q0 50 -19 90t-55 63.5t-86 23.5t-85.5 -23.5t-54 -63.5t-18.5 -90v-4z" />
    <glyph glyph-name="f" unicode="f" horiz-adv-x="360" 
d="M152 0q-10 0 -16 6t-6 16v440h-89q-10 0 -16 6t-6 16v14q0 10 6 16t16 6h89v57q0 45 12.5 82t45 59t93.5 22h52q10 0 16 -6t6 -16v-14q0 -10 -6 -16t-16 -6h-52q-53 0 -71.5 -28.5t-18.5 -81.5v-52h132q10 0 16 -6t6 -16v-14q0 -10 -6 -16t-16 -6h-132v-440q0 -10 -6 -16
t-16 -6h-17z" />
    <glyph glyph-name="g" unicode="g" horiz-adv-x="581" 
d="M275 -220q-64 0 -104.5 17t-63 41.5t-31.5 49t-10 39.5q-1 10 6 16.5t16 6.5h14q8 0 14 -3.5t10 -17.5q6 -16 19.5 -37.5t43 -37.5t81.5 -16q55 0 92 14t56.5 49.5t19.5 98.5v69q-25 -34 -65.5 -56.5t-102.5 -22.5q-58 0 -98.5 21t-65.5 56t-37 78t-13 87q-1 28 0 56
q1 44 13 87t37 78t65.5 56t98.5 21q62 0 102.5 -23t65.5 -56v46q0 10 6 16.5t16 6.5h16q10 0 16.5 -6.5t6.5 -16.5v-487q0 -64 -19 -116t-67.5 -83t-137.5 -31zM276 48q57 0 92 27t51.5 67.5t18.5 81.5q1 15 1 36t-1 36q-2 41 -18.5 81.5t-51.5 67.5t-92 27q-58 0 -92.5 -26
t-49.5 -68t-17 -90q-1 -28 0 -56q2 -48 17 -90t49.5 -68t92.5 -26z" />
    <glyph glyph-name="h" unicode="h" horiz-adv-x="591" 
d="M104 0q-10 0 -16 6t-6 16v666q0 10 6 16t16 6h17q10 0 16 -6t6 -16v-237q27 35 65.5 57t102.5 22q68 0 113.5 -29.5t68 -80t22.5 -114.5v-284q0 -10 -6 -16t-16 -6h-17q-10 0 -16 6t-6 16v279q0 80 -39 125.5t-114 45.5q-71 0 -114.5 -45.5t-43.5 -125.5v-279
q0 -10 -6 -16t-16 -6h-17z" />
    <glyph glyph-name="i" unicode="i" horiz-adv-x="223" 
d="M103 0q-10 0 -16 6t-6 16v476q0 10 6 16t16 6h17q10 0 16 -6t6 -16v-476q0 -10 -6 -16t-16 -6h-17zM92 627q-10 0 -16 6t-6 16v38q0 10 6 16.5t16 6.5h38q10 0 16.5 -6.5t6.5 -16.5v-38q0 -10 -6.5 -16t-16.5 -6h-38z" />
    <glyph glyph-name="j" unicode="j" horiz-adv-x="233" 
d="M-4 -190q-10 0 -16 6t-6 16v14q0 10 6 16t16 6h4q41 0 60 15t24.5 40t5.5 55v520q0 10 6 16t16 6h17q10 0 16 -6t6 -16v-520q0 -47 -12.5 -85t-45 -60.5t-93.5 -22.5h-4zM101 627q-10 0 -16 6t-6 16v38q0 10 6 16.5t16 6.5h38q10 0 16.5 -6.5t6.5 -16.5v-38
q0 -10 -6.5 -16t-16.5 -6h-38z" />
    <glyph glyph-name="k" unicode="k" horiz-adv-x="487" 
d="M104 0q-10 0 -16 6t-6 16v666q0 10 6 16t16 6h17q10 0 16 -6t6 -16v-354l223 169q14 11 20.5 14t21.5 3h19q9 0 14.5 -5.5t5.5 -14.5q0 -4 -2.5 -9.5t-10.5 -10.5l-253 -192l278 -248q13 -12 13 -20q0 -9 -5.5 -14.5t-14.5 -5.5h-16q-15 0 -21.5 2.5t-20.5 14.5l-251 223
v-218q0 -10 -6 -16t-16 -6h-17z" />
    <glyph glyph-name="l" unicode="l" horiz-adv-x="225" 
d="M104 0q-10 0 -16 6t-6 16v666q0 10 6 16t16 6h17q10 0 16 -6t6 -16v-666q0 -10 -6 -16t-16 -6h-17z" />
    <glyph glyph-name="m" unicode="m" horiz-adv-x="878" 
d="M103 0q-10 0 -16 6t-6 16v476q0 10 6 16t16 6h17q10 0 16 -6t6 -16v-35q25 32 59.5 49.5t83.5 17.5q112 0 160 -94q23 43 67.5 68.5t102.5 25.5q53 0 95.5 -24.5t67 -72.5t24.5 -120v-291q0 -10 -6 -16t-16 -6h-17q-10 0 -16 6t-6 16v281q0 66 -19 102.5t-50 51.5t-67 15
q-30 0 -61 -15t-51.5 -51.5t-20.5 -102.5v-281q0 -10 -6 -16t-16 -6h-17q-10 0 -16 6t-6 16v281q0 66 -20 102.5t-51 51.5t-65 15q-30 0 -61 -15t-51.5 -51.5t-20.5 -101.5v-282q0 -10 -6 -16t-16 -6h-17z" />
    <glyph glyph-name="n" unicode="n" horiz-adv-x="590" 
d="M103 0q-10 0 -16 6t-6 16v476q0 10 6 16t16 6h17q10 0 16 -6t6 -16v-47q27 35 65.5 57t102.5 22q68 0 113.5 -29.5t68 -80t22.5 -114.5v-284q0 -10 -6 -16t-16 -6h-17q-10 0 -16 6t-6 16v279q0 80 -39 125.5t-114 45.5q-71 0 -114.5 -45.5t-43.5 -125.5v-279
q0 -10 -6 -16t-16 -6h-17z" />
    <glyph glyph-name="o" unicode="o" horiz-adv-x="558" 
d="M279 -10q-72 0 -120.5 30t-74 82t-27.5 116q-1 15 -1 42t1 42q2 65 27.5 116.5t74 81.5t120.5 30t120.5 -30t74 -81.5t27.5 -116.5q1 -15 1 -42t-1 -42q-2 -64 -27.5 -116t-74 -82t-120.5 -30zM279 48q70 0 114 45t47 130q1 15 1 37t-1 37q-3 86 -47 130.5t-114 44.5
t-114 -44.5t-47 -130.5q-1 -15 -1 -37t1 -37q3 -85 47 -130t114 -45z" />
    <glyph glyph-name="p" unicode="p" horiz-adv-x="581" 
d="M104 -190q-10 0 -16 6t-6 16v666q0 10 6 16t16 6h17q10 0 16 -6t6 -16v-47q25 34 65.5 56.5t102.5 22.5q59 0 99 -20.5t65 -54.5t37 -76t13 -86q1 -15 1 -33t-1 -33q-1 -44 -13 -86t-37 -76t-65 -54.5t-99 -20.5q-62 0 -102.5 23t-65.5 56v-237q0 -10 -6 -16t-16 -6h-17z
M305 48q59 0 93 26t49 68t17 90q1 28 0 56q-2 48 -17 90t-49 68t-93 26q-57 0 -92 -27t-51.5 -67.5t-18.5 -81.5q-1 -15 -1 -39t1 -39q1 -40 18.5 -79t53 -65t90.5 -26z" />
    <glyph glyph-name="q" unicode="q" horiz-adv-x="581" 
d="M460 -190q-10 0 -16 6t-6 16v237q-25 -33 -65.5 -56t-102.5 -23q-58 0 -98.5 20.5t-65.5 54.5t-36.5 76t-13.5 86q-1 15 -1 33t1 33q2 44 13.5 86t36.5 76t65.5 54.5t98.5 20.5q62 0 102.5 -22.5t65.5 -56.5v47q0 10 6 16t16 6h17q10 0 16 -6t6 -16v-666q0 -10 -6 -16
t-16 -6h-17zM276 48q56 0 91 26t52.5 65t18.5 79q1 15 1 39t-1 39q-1 41 -18 81.5t-52 67.5t-92 27q-58 0 -92.5 -26t-49.5 -68t-17 -90q-1 -28 0 -56q2 -48 17 -90t49.5 -68t92.5 -26z" />
    <glyph glyph-name="r" unicode="r" horiz-adv-x="348" 
d="M103 0q-10 0 -16 6t-6 16v475q0 10 6 16.5t16 6.5h16q10 0 16.5 -6.5t6.5 -16.5v-46q18 35 52 52t84 17h37q10 0 16 -6t6 -16v-14q0 -10 -6 -16t-16 -6h-43q-60 0 -95 -35t-35 -95v-310q0 -10 -6.5 -16t-16.5 -6h-16z" />
    <glyph glyph-name="s" unicode="s" horiz-adv-x="492" 
d="M246 -10q-52 0 -89.5 14t-61.5 33.5t-35.5 38.5t-12.5 29q-1 11 7 16.5t15 5.5h15q6 0 10.5 -2t11.5 -11q13 -17 30 -32.5t43.5 -24.5t66.5 -9q60 0 99 23t39 68q0 28 -15.5 45t-52.5 30t-100 27q-63 15 -96.5 36t-45.5 48.5t-12 59.5q0 35 20 68.5t59.5 55t99.5 21.5
q49 0 83.5 -13t56.5 -31.5t32.5 -36.5t11.5 -29q1 -10 -6 -16t-16 -6h-15q-8 0 -13 3.5t-9 9.5q-10 16 -24 30t-37.5 22.5t-63.5 8.5q-60 0 -89 -24.5t-29 -62.5q0 -22 12 -38.5t45 -30t96 -28.5q64 -14 101 -34.5t52.5 -48.5t15.5 -66q0 -40 -22.5 -74t-67 -54.5
t-109.5 -20.5z" />
    <glyph glyph-name="t" unicode="t" horiz-adv-x="359" 
d="M256 0q-52 0 -82 22t-42 60t-12 85v295h-78q-10 0 -16 6t-6 16v14q0 10 6 16t16 6h78v168q0 10 6 16t16 6h17q10 0 16 -6t6 -16v-168h124q10 0 16 -6t6 -16v-14q0 -10 -6 -16t-16 -6h-124v-291q0 -53 17.5 -83t62.5 -30h54q10 0 16 -6t6 -16v-14q0 -10 -6 -16t-16 -6h-59
z" />
    <glyph glyph-name="u" unicode="u" horiz-adv-x="585" 
d="M276 -10q-68 0 -112.5 29.5t-66 80.5t-21.5 114v284q0 10 6 16t16 6h17q10 0 16 -6t6 -16v-279q0 -171 149 -171q71 0 114 45.5t43 125.5v279q0 10 6 16t16 6h17q10 0 16 -6t6 -16v-476q0 -10 -6 -16t-16 -6h-17q-10 0 -16 6t-6 16v47q-27 -35 -64.5 -57t-102.5 -22z" />
    <glyph glyph-name="v" unicode="v" horiz-adv-x="536" 
d="M260 0q-16 0 -24.5 7t-13.5 18l-184 464q-2 6 -2 11q0 8 6 14t14 6h21q10 0 15.5 -5.5t6.5 -9.5l169 -432l169 432q2 4 7 9.5t15 5.5h21q8 0 14 -6t6 -14q0 -5 -2 -11l-184 -464q-4 -11 -13 -18t-25 -7h-16z" />
    <glyph glyph-name="w" unicode="w" horiz-adv-x="786" 
d="M216 0q-13 0 -20 6t-12 19l-141 464q-2 6 -2 11q0 8 6 14t14 6h19q10 0 15.5 -5.5t6.5 -9.5l123 -416l131 411q2 6 8 13t19 7h20q13 0 19.5 -7t7.5 -13l131 -411l123 416q1 4 6.5 9.5t15.5 5.5h19q8 0 14 -6t6 -14q0 -5 -2 -11l-141 -464q-4 -13 -11 -19t-21 -6h-17
q-13 0 -21.5 6t-12.5 19l-126 394l-126 -394q-4 -13 -12 -19t-22 -6h-17z" />
    <glyph glyph-name="x" unicode="x" horiz-adv-x="518" 
d="M55 0q-8 0 -14 6t-6 14q0 4 1.5 8.5t6.5 11.5l176 226l-167 214q-5 7 -6.5 11.5t-1.5 8.5q0 8 6 14t14 6h21q10 0 15.5 -5t9.5 -10l150 -193l150 192q5 5 10 10.5t15 5.5h20q8 0 14 -6t6 -14q0 -4 -1.5 -8.5t-6.5 -11.5l-169 -217l176 -223q5 -7 6.5 -11.5t1.5 -8.5
q0 -8 -6 -14t-14 -6h-21q-10 0 -15.5 5t-9.5 10l-158 202l-158 -202q-4 -5 -9.5 -10t-15.5 -5h-20z" />
    <glyph glyph-name="y" unicode="y" horiz-adv-x="532" 
d="M169 -190q-8 0 -14 6t-6 14q0 4 1.5 8.5t4.5 11.5l77 180l-191 450q-6 15 -6 20q0 8 6 14t14 6h21q10 0 15.5 -4.5t7.5 -10.5l168 -396l172 396q3 6 8 10.5t15 4.5h20q8 0 14 -6t6 -14q0 -5 -6 -20l-284 -655q-3 -6 -8 -10.5t-15 -4.5h-20z" />
    <glyph glyph-name="z" unicode="z" horiz-adv-x="490" 
d="M64 0q-10 0 -16 6t-6 16v17q0 8 4.5 16t9.5 15l294 392h-276q-10 0 -16 6t-6 16v14q0 10 6 16t16 6h336q10 0 16 -6t6 -16v-17q0 -8 -4.5 -15.5t-9.5 -15.5l-292 -392h304q10 0 16 -6t6 -16v-14q0 -10 -6 -16t-16 -6h-366z" />
    <glyph glyph-name="braceleft" unicode="{" horiz-adv-x="344" 
d="M290 -159q-59 0 -93 19.5t-50 57t-20.5 91t-4.5 122.5q0 57 -14 85t-42 47l-5 3q-24 16 -24 37v12q0 21 24 37l6 4q28 20 41.5 47.5t13.5 83.5q0 69 4.5 122.5t20.5 90.5t50 56.5t93 19.5h5q10 0 16 -6t6 -16v-14q0 -10 -6 -16t-16 -6h-5q-51 0 -73.5 -26t-28 -81
t-5.5 -145q0 -58 -18 -96t-57 -61q26 -15 42.5 -37t24.5 -51.5t8 -68.5q0 -89 5.5 -145t28 -81.5t73.5 -26.5h5q10 0 16 -6t6 -16v-14q0 -10 -6 -16t-16 -6h-5z" />
    <glyph glyph-name="bar" unicode="|" horiz-adv-x="219" 
d="M101 -208q-10 0 -16 6t-6 16v1060q0 10 6 16t16 6h17q10 0 16 -6t6 -16v-1060q0 -10 -6 -16t-16 -6h-17z" />
    <glyph glyph-name="braceright" unicode="}" horiz-adv-x="344" 
d="M54 776q59 0 93 -19.5t50 -57t20.5 -91t4.5 -122.5q0 -57 14 -84.5t42 -47.5l5 -3q24 -16 24 -37v-12q0 -21 -24 -37l-6 -4q-28 -19 -41.5 -47t-13.5 -84q0 -69 -4.5 -122.5t-20.5 -90.5t-50 -56.5t-93 -19.5h-5q-10 0 -16 6t-6 16v14q0 10 6 16t16 6h5q52 1 74 26.5
t27.5 81t5.5 144.5q0 59 18 96.5t57 60.5q-26 16 -42.5 37.5t-24.5 51t-8 68.5q0 90 -5.5 145.5t-27.5 81.5t-74 26h-5q-10 0 -16 6t-6 16v14q0 10 6 16t16 6h5z" />
    <glyph glyph-name="asciitilde" unicode="~" horiz-adv-x="563" 
d="M94 252q-7 0 -12 5t-5 12v23q0 13 16 25.5t41 21t53 8.5q32 0 55.5 -5.5t44.5 -12t42.5 -12t48.5 -5.5q31 0 49 12t30 19q4 2 7 3t6 1q8 0 12.5 -4.5t4.5 -12.5v-23q0 -12 -16 -25t-41 -21.5t-53 -8.5q-30 0 -53.5 5.5t-44 12t-43 12t-50.5 5.5q-31 0 -49 -12t-30 -19
q-4 -1 -7 -2.5t-6 -1.5z" />
    <glyph glyph-name="uni00A0" unicode="&#xa0;" horiz-adv-x="258" 
 />
    <glyph glyph-name="exclamdown" unicode="&#xa1;" horiz-adv-x="217" 
d="M117 376q10 0 16 -6t6 -16v-513q0 -10 -6 -16t-16 -6h-17q-10 0 -16 6t-6 16v513q0 10 6 16t16 6h17zM128 519q10 0 16 -6t6 -16v-38q0 -10 -6 -16.5t-16 -6.5h-38q-10 0 -16.5 6.5t-6.5 16.5v38q0 10 6.5 16t16.5 6h38z" />
    <glyph glyph-name="cent" unicode="&#xa2;" horiz-adv-x="544" 
d="M266 -100q-10 0 -16 6t-6 16v70q-85 9 -133 69t-50 159q-1 15 -1 40t1 40q2 98 50 158.5t133 69.5v60q0 10 6 16t16 6h16q10 0 16 -6t6 -16v-59q51 -5 86.5 -23t57 -42.5t31 -49.5t10.5 -43q1 -10 -6 -16t-16 -6h-14q-10 0 -14.5 4.5t-9.5 16.5q-21 57 -61.5 79.5
t-93.5 22.5q-61 0 -105 -41.5t-47 -135.5q-2 -35 0 -70q3 -94 47 -135.5t105 -41.5q53 0 93.5 22.5t61.5 79.5q5 12 9.5 16.5t14.5 4.5h14q9 0 16 -6t6 -16q-1 -18 -10.5 -43t-31 -49.5t-57 -42.5t-86.5 -23v-69q0 -10 -6 -16t-16 -6h-16z" />
    <glyph glyph-name="sterling" unicode="&#xa3;" horiz-adv-x="658" 
d="M449 -5q-38 0 -66.5 12t-51 29.5t-43 35t-41.5 29.5t-47 12q-47 0 -63 -26t-22 -66q-1 -5 -4 -13t-17 -8h-23q-9 0 -14 6t-5 13q2 71 36 107.5t82 44.5q-1 34 -7 69t-12 75h-77q-10 0 -16 6t-6 16v16q0 10 6 16t16 6h70q-1 19 -2 39t-1 42q0 67 23.5 125t73.5 94t128 36
q75 0 125 -30.5t75.5 -80t26.5 -105.5q0 -9 -6 -15.5t-15 -6.5h-18q-7 0 -14 6t-9 15q-13 74 -53 115.5t-113 41.5q-80 0 -120.5 -55t-40.5 -141q0 -22 1 -41.5t3 -38.5h211q10 0 16 -6t6 -16v-16q0 -10 -6 -16t-16 -6h-202q5 -36 10.5 -71.5t6.5 -74.5q37 -7 64 -25
t49.5 -38.5t46.5 -35.5t55 -15q47 0 63.5 27t22.5 67q1 5 6.5 12t12.5 7h25q9 0 14 -5.5t5 -13.5q-1 -50 -20 -84.5t-52.5 -52t-76.5 -17.5z" />
    <glyph glyph-name="currency" unicode="&#xa4;" horiz-adv-x="578" 
d="M90 89l-12 12q-7 7 -7 15.5t7 15.5l43 42q-42 54 -42 126t42 126l-43 42q-7 7 -7 15.5t7 15.5l12 12q7 7 15.5 7t15.5 -7l42 -43q26 20 58 31t68 11q35 0 67.5 -11t58.5 -31l42 43q7 7 15.5 7t15.5 -7l12 -12q7 -7 7 -15.5t-7 -15.5l-43 -42q20 -26 31 -58.5t11 -67.5
q0 -36 -11 -68t-31 -58l43 -42q7 -7 7 -15.5t-7 -15.5l-12 -12q-7 -7 -15.5 -7t-15.5 7l-42 43q-54 -42 -126 -42t-126 42l-42 -43q-7 -7 -15.5 -7t-15.5 7zM289 150q42 0 76 20t54 54.5t20 75.5q0 42 -20 76t-54 54t-76 20t-76 -20t-54 -54t-20 -76q0 -41 20 -75.5
t54 -54.5t76 -20z" />
    <glyph glyph-name="yen" unicode="&#xa5;" horiz-adv-x="586" 
d="M283 0q-10 0 -16 6t-6 16v272l-221 373q-1 3 -2.5 6t-1.5 7q0 8 6 14t14 6h22q7 0 13 -3.5t10 -11.5l192 -324l192 324q5 8 10.5 11.5t12.5 3.5h22q8 0 14 -6t6 -14q0 -4 -1 -7t-3 -6l-221 -373v-272q0 -10 -6 -16t-17 -6h-19zM113 123q-10 0 -16 6t-6 16v16q0 10 6 16
t16 6h360q10 0 16 -6t6 -16v-16q0 -10 -6 -16t-16 -6h-360zM113 243q-10 0 -16 6t-6 16v16q0 10 6 16t16 6h360q10 0 16 -6t6 -16v-16q0 -10 -6 -16t-16 -6h-360z" />
    <glyph glyph-name="brokenbar" unicode="&#xa6;" horiz-adv-x="225" 
d="M104 475q-10 0 -16 6t-6 16v310q0 10 6 16t16 6h17q10 0 16 -6t6 -16v-310q0 -10 -6 -16t-16 -6h-17zM104 0q-10 0 -16 6t-6 16v310q0 10 6 16t16 6h17q10 0 16 -6t6 -16v-310q0 -10 -6 -16t-16 -6h-17z" />
    <glyph glyph-name="section" unicode="&#xa7;" horiz-adv-x="553" 
d="M272 -140q-51 0 -88 12.5t-60.5 33t-35 44t-12.5 44.5q-1 9 5 14.5t16 5.5h18q8 0 14 -4t10 -16q7 -18 19.5 -35.5t39.5 -29t74 -11.5q63 0 92.5 30.5t29.5 73.5q0 31 -12 49t-41.5 31.5t-84.5 29.5q-75 23 -121 48.5t-67.5 61t-21.5 88.5q0 43 23 74.5t55 55.5
q-15 18 -20.5 40t-5.5 48q0 39 20 76.5t61 61.5t102 24q69 0 111.5 -21.5t63 -52.5t21.5 -60q1 -9 -5 -14.5t-16 -5.5h-18q-8 0 -13.5 4t-10.5 16q-6 18 -19 35.5t-39.5 29t-74.5 11.5q-63 0 -92.5 -30.5t-29.5 -73.5q0 -31 12 -49t42 -31t84 -30q75 -23 121 -48.5t67.5 -61
t21.5 -88.5q0 -43 -23 -74.5t-55 -55.5q15 -18 20.5 -40t5.5 -48q0 -39 -20 -76t-60.5 -61.5t-102.5 -24.5zM382 147q31 20 47.5 41t16.5 53q0 30 -13 54t-50 45t-111 43q-32 10 -57 20t-44 20q-31 -20 -47.5 -41t-16.5 -53q0 -30 13 -54t50.5 -45t110.5 -43q64 -19 101 -40
z" />
    <glyph glyph-name="dieresis" unicode="&#xa8;" horiz-adv-x="376" 
d="M245 627q-10 0 -16 6t-6 16v38q0 10 6 16.5t16 6.5h38q10 0 16.5 -6.5t6.5 -16.5v-38q0 -10 -6.5 -16t-16.5 -6h-38zM92 627q-10 0 -16 6t-6 16v38q0 10 6 16.5t16 6.5h38q10 0 16.5 -6.5t6.5 -16.5v-38q0 -10 -6.5 -16t-16.5 -6h-38z" />
    <glyph glyph-name="copyright" unicode="&#xa9;" horiz-adv-x="834" 
d="M417 -10q-75 0 -140 28t-114.5 77.5t-77.5 114.5t-28 140t28 140t77.5 114.5t114.5 77.5t140 28t140 -28t114.5 -77.5t77.5 -114.5t28 -140t-28 -140t-77.5 -114.5t-114.5 -77.5t-140 -28zM417 45q62 0 116.5 24t95.5 66t64.5 97.5t23.5 117.5t-23.5 117.5t-64.5 97.5
t-95.5 66t-116.5 24t-116.5 -24t-95.5 -66t-64.5 -97.5t-23.5 -117.5t23.5 -117.5t64.5 -97.5t95.5 -66t116.5 -24zM417 158q-50 0 -86 22t-55 58t-21 79q0 10 -0.5 22t0 24t0.5 22q2 43 21 79t55 58t86 22q54 0 89 -17t52 -41.5t17 -48.5q0 -10 -6 -16t-16 -6h-17
q-10 0 -15 6t-8 13q-9 24 -31 38t-65 14q-40 0 -61.5 -16.5t-30 -40t-9.5 -44.5q0 -10 -0.5 -22t0 -24t0.5 -22q1 -20 9.5 -44t30 -40.5t61.5 -16.5q43 0 65 14t31 38q3 8 8 13.5t15 5.5h17q10 0 16 -6t6 -16q0 -23 -17 -48t-52 -42t-89 -17z" />
    <glyph glyph-name="ordfeminine" unicode="&#xaa;" horiz-adv-x="367" 
d="M151 429q-43 0 -68 22.5t-25 53.5q0 40 30.5 65t82.5 32l63 9q0 3 -2.5 12t-13 16.5t-34.5 7.5q-22 0 -33 -5t-18.5 -10t-18.5 -5h-17q-10 0 -16.5 3.5t-5.5 13.5t15.5 24.5t39.5 25.5t57 11q50 0 79 -30t29 -77v-142q0 -10 -6 -16t-16 -6h-17q-10 0 -16 6t-6 16v7
q-8 -14 -32 -24t-51 -10zM160 483q41 0 57.5 23t16.5 53l-47 -7q-42 -6 -54.5 -18t-12.5 -27q0 -11 12 -17.5t28 -6.5z" />
    <glyph glyph-name="guillemotleft" unicode="&#xab;" horiz-adv-x="603" 
d="M525 92q-6 0 -12 3.5t-12 8.5l-188 182q-10 10 -13 18.5t-4 16.5v16q1 8 4 16.5t13 18.5l188 182q6 5 12 8.5t12 3.5q9 0 14.5 -5.5t5.5 -14.5v-17q0 -12 -4 -19t-14 -17l-169 -164l169 -164q10 -10 14 -17t4 -19v-17q0 -9 -5.5 -14.5t-14.5 -5.5zM276 92q-6 0 -12 3.5
t-12 8.5l-188 182q-10 10 -13 18.5t-4 16.5v16q1 8 4 16.5t13 18.5l188 182q6 5 12 8.5t12 3.5q9 0 14.5 -5.5t5.5 -14.5v-17q0 -12 -4 -19t-14 -17l-169 -164l169 -164q10 -10 14 -17t4 -19v-17q0 -9 -5.5 -14.5t-14.5 -5.5z" />
    <glyph glyph-name="logicalnot" unicode="&#xac;" horiz-adv-x="581" 
d="M465 170q-10 0 -16 6t-6 16v100h-345q-10 0 -16 6t-6 16v14q0 10 6 16t16 6h385q10 0 16 -6t6 -16v-136q0 -10 -6 -16t-16 -6h-18z" />
    <glyph glyph-name="uni00AD" unicode="&#xad;" horiz-adv-x="600" 
d="M96 271q-10 0 -16 6t-6 16v14q0 10 6 16t16 6h295q10 0 16 -6t6 -16v-14q0 -10 -6 -16t-16 -6h-295z" />
    <glyph glyph-name="registered" unicode="&#xae;" horiz-adv-x="834" 
d="M417 -10q-75 0 -140 28t-114.5 77.5t-77.5 114.5t-28 140t28 140t77.5 114.5t114.5 77.5t140 28t140 -28t114.5 -77.5t77.5 -114.5t28 -140t-28 -140t-77.5 -114.5t-114.5 -77.5t-140 -28zM417 45q62 0 116.5 24t95.5 66t64.5 97.5t23.5 117.5t-23.5 117.5t-64.5 97.5
t-95.5 66t-116.5 24t-116.5 -24t-95.5 -66t-64.5 -97.5t-23.5 -117.5t23.5 -117.5t64.5 -97.5t95.5 -66t116.5 -24zM304 168q-22 0 -22 22v322q0 22 22 22h128q38 0 69 -11t49 -36.5t18 -68.5q0 -40 -20 -66.5t-52 -38.5l69 -109q2 -2 3 -5.5t1 -8.5q0 -8 -5.5 -15t-16.5 -7
h-14q-10 0 -17 5t-12 14l-72 115h-89v-112q0 -22 -22 -22h-17zM343 360h87q46 0 61.5 18t15.5 40q0 23 -15.5 40.5t-61.5 17.5h-87v-116z" />
    <glyph glyph-name="macron" unicode="&#xaf;" horiz-adv-x="383" 
d="M92 622q-10 0 -16 6t-6 16v14q0 10 6 16t16 6h199q10 0 16 -6t6 -16v-14q0 -10 -6 -16t-16 -6h-199z" />
    <glyph glyph-name="degree" unicode="&#xb0;" horiz-adv-x="378" 
d="M189 448q-37 0 -68 17t-49.5 47t-18.5 67q0 38 18.5 67.5t49.5 46.5t68 17q38 0 68.5 -17t49 -46.5t18.5 -67.5q0 -37 -18.5 -67t-49 -47t-68.5 -17zM189 503q34 0 55 21t21 55t-21 55t-55 21t-55 -21t-21 -55t21 -55t55 -21z" />
    <glyph glyph-name="plusminus" unicode="&#xb1;" horiz-adv-x="556" 
d="M270 193q-10 0 -16 6t-6 16v158h-157q-10 0 -16 6t-6 16v14q0 10 6 16t16 6h157v154q0 10 6 16t16 6h16q10 0 16 -6t6 -16v-154h157q10 0 16 -6t6 -16v-14q0 -10 -6 -16t-16 -6h-157v-158q0 -10 -6 -16t-16 -6h-16zM101 0q-10 0 -16 6t-6 16v14q0 10 6 16t16 6h354
q10 0 16 -6t6 -16v-14q0 -10 -6 -16t-16 -6h-354z" />
    <glyph glyph-name="uni00B2" unicode="&#xb2;" horiz-adv-x="335" 
d="M53 350q-22 0 -22 22v17q0 8 5 15.5t19 17.5q64 46 102.5 73.5t56 49.5t17.5 49q0 26 -19.5 41t-45.5 15q-27 0 -40.5 -8.5t-19 -18.5t-8.5 -16q-6 -11 -11 -14.5t-13 -3.5h-15q-20 0 -18 19q2 24 19 46t45 36.5t61 14.5q57 0 90 -33.5t33 -77.5q0 -37 -16 -64.5t-51 -56
t-92 -67.5h152q22 0 22 -22v-12q0 -22 -22 -22h-229z" />
    <glyph glyph-name="uni00B3" unicode="&#xb3;" horiz-adv-x="336" 
d="M163 345q-44 0 -73 11.5t-44 29.5t-17 39q-1 10 6 14.5t11 4.5h20q7 0 12.5 -4.5t9.5 -9.5q6 -7 12.5 -14t20.5 -11t42 -4q33 0 55.5 13t22.5 37q0 29 -20 39.5t-52 10.5h-40q-10 0 -16 6t-6 16v17q0 7 3.5 12.5t8.5 10.5l89 81h-142q-22 0 -22 22v12q0 22 22 22h198
q22 0 22 -22v-12q0 -11 -2.5 -19.5t-13.5 -19.5l-76 -70q57 -3 81 -33.5t24 -72.5q0 -49 -35 -77.5t-101 -28.5z" />
    <glyph glyph-name="acute" unicode="&#xb4;" horiz-adv-x="311" 
d="M86 595q-16 0 -16 16q0 8 5 13l69 83q8 10 15 14t22 4h41q19 0 19 -19q0 -7 -5 -12l-109 -89q-8 -7 -14.5 -8.5t-16.5 -1.5h-10z" />
    <glyph glyph-name="uni00B5" unicode="&#xb5;" horiz-adv-x="586" 
d="M98 -200q-10 0 -16 6t-6 16v676q0 10 6 16t16 6h17q10 0 16 -6t6 -16v-279q0 -53 23.5 -91.5t59.5 -59t73 -20.5q38 0 73.5 20.5t59 59t23.5 91.5v279q0 10 6 16t16 6h17q10 0 16 -6t6 -16v-476q0 -10 -6 -16t-16 -6h-17q-10 0 -16 6t-6 16v47q-25 -34 -61 -56.5
t-95 -22.5q-58 0 -94 22.5t-62 56.5v-247q0 -10 -6 -16t-16 -6h-17z" />
    <glyph glyph-name="paragraph" unicode="&#xb6;" horiz-adv-x="491" 
d="M231 -100q-10 0 -16 6t-6 16v424q-49 0 -89 24t-64 64t-24 89t24 89t64 64t89 24h179q10 0 16 -6t6 -16v-756q0 -10 -6 -16t-16 -6h-17q-10 0 -16 6t-6 16v720h-79v-720q0 -10 -6 -16t-16 -6h-17z" />
    <glyph glyph-name="periodcentered" unicode="&#xb7;" horiz-adv-x="330" 
d="M165 200q-27 0 -50 13.5t-36.5 36.5t-13.5 50q0 28 13.5 50.5t36.5 36t50 13.5q28 0 50.5 -13.5t36 -36t13.5 -50.5q0 -27 -13.5 -50t-36 -36.5t-50.5 -13.5z" />
    <glyph glyph-name="cedilla" unicode="&#xb8;" horiz-adv-x="320" 
d="M156 -220q-28 1 -49.5 10.5t-31 21.5t-1.5 19l14 13q9 8 16 3t18.5 -13t33.5 -8q17 0 30 10.5t13 29.5q0 18 -13 28t-30 10q-16 0 -26.5 -4.5t-18 -6t-15.5 6.5l-16 17q-5 6 -1.5 14.5t6.5 15.5l35 80h58l-42 -85q6 4 16.5 6t21.5 2q33 0 54.5 -23t21.5 -59t-23.5 -62.5
t-70.5 -25.5z" />
    <glyph glyph-name="uni00B9" unicode="&#xb9;" horiz-adv-x="242" 
d="M146 350q-22 0 -22 22v251l-63 -47q-7 -5 -16 -4t-15 9l-7 10q-6 8 -4.5 16.5t8.5 14.5l96 71q10 7 23 7h14q22 0 22 -22v-306q0 -22 -22 -22h-14z" />
    <glyph glyph-name="ordmasculine" unicode="&#xba;" horiz-adv-x="361" 
d="M181 429q-52 0 -84.5 27.5t-35.5 83.5q-1 8 -1 27.5t1 26.5q3 56 38 83.5t82 27.5t82 -27.5t38 -83.5q1 -7 1 -26.5t-1 -27.5q-3 -56 -35.5 -83.5t-84.5 -27.5zM181 487q28 0 43 15t16 43q1 8 1 22.5t-1 21.5q-1 26 -16 42t-43 16t-42.5 -16t-16.5 -42q-1 -7 -1 -21.5
t1 -22.5q2 -28 16.5 -43t42.5 -15z" />
    <glyph glyph-name="guillemotright" unicode="&#xbb;" horiz-adv-x="603" 
d="M327 92q-9 0 -14.5 5.5t-5.5 14.5v17q0 12 4 19t14 17l169 164l-169 164q-10 10 -14 17t-4 19v17q0 9 5.5 14.5t14.5 5.5q6 0 12 -3.5t12 -8.5l188 -182q10 -10 13 -18.5t4 -16.5v-16q-1 -8 -4 -16.5t-13 -18.5l-188 -182q-6 -5 -12 -8.5t-12 -3.5zM78 92q-9 0 -14.5 5.5
t-5.5 14.5v17q0 12 4 19t14 17l169 164l-169 164q-10 10 -14 17t-4 19v17q0 9 5.5 14.5t14.5 5.5q6 0 12 -3.5t12 -8.5l188 -182q10 -10 13 -18.5t4 -16.5v-16q-1 -8 -4 -16.5t-13 -18.5l-188 -182q-6 -5 -12 -8.5t-12 -3.5z" />
    <glyph glyph-name="onequarter" unicode="&#xbc;" horiz-adv-x="746" 
d="M146 350q-22 0 -22 22v251l-63 -47q-7 -5 -16 -4t-15 9l-7 10q-6 8 -4.5 16.5t8.5 14.5l96 71q10 7 23 7h14q22 0 22 -22v-306q0 -22 -22 -22h-14zM72 0q-20 0 -20 20q0 6 4 11l493 650q7 9 13.5 14t19.5 5h17q20 0 20 -20q0 -6 -4 -11l-493 -650q-7 -9 -13 -14t-20 -5
h-17zM629 0q-22 0 -22 22v53h-147q-22 0 -22 22v13q0 2 1.5 10t10.5 20l137 192q8 11 15.5 14.5t14.5 3.5h26q22 0 22 -22v-197h35q22 0 22 -22v-12q0 -22 -22 -22h-35v-53q0 -22 -22 -22h-14zM513 131h94v135z" />
    <glyph glyph-name="onehalf" unicode="&#xbd;" horiz-adv-x="751" 
d="M146 350q-22 0 -22 22v251l-63 -47q-7 -5 -16 -4t-15 9l-7 10q-6 8 -4.5 16.5t8.5 14.5l96 71q10 7 23 7h14q22 0 22 -22v-306q0 -22 -22 -22h-14zM72 0q-20 0 -20 20q0 6 4 11l493 650q7 9 13.5 14t19.5 5h17q20 0 20 -20q0 -6 -4 -11l-493 -650q-7 -9 -13 -14t-20 -5
h-17zM469 0q-22 0 -22 22v17q0 8 5 15.5t19 17.5q64 46 102.5 73.5t56 49.5t17.5 49q0 26 -19.5 41t-45.5 15q-27 0 -40.5 -8.5t-19 -18.5t-8.5 -16q-6 -11 -11 -14.5t-13 -3.5h-15q-20 0 -18 19q2 24 19 46t45 36.5t61 14.5q57 0 90 -33.5t33 -77.5q0 -37 -16 -64.5
t-51 -56t-92 -67.5h152q22 0 22 -22v-12q0 -22 -22 -22h-229z" />
    <glyph glyph-name="threequarters" unicode="&#xbe;" horiz-adv-x="840" 
d="M163 345q-44 0 -73 11.5t-44 29.5t-17 39q-1 10 6 14.5t11 4.5h20q7 0 12.5 -4.5t9.5 -9.5q6 -7 12.5 -14t20.5 -11t42 -4q33 0 55.5 13t22.5 37q0 29 -20 39.5t-52 10.5h-40q-10 0 -16 6t-6 16v17q0 7 3.5 12.5t8.5 10.5l89 81h-142q-22 0 -22 22v12q0 22 22 22h198
q22 0 22 -22v-12q0 -11 -2.5 -19.5t-13.5 -19.5l-76 -70q57 -3 81 -33.5t24 -72.5q0 -49 -35 -77.5t-101 -28.5zM166 0q-20 0 -20 20q0 6 4 11l493 650q7 9 13.5 14t19.5 5h17q20 0 20 -20q0 -6 -4 -11l-493 -650q-7 -9 -13 -14t-20 -5h-17zM723 0q-22 0 -22 22v53h-147
q-22 0 -22 22v13q0 2 1.5 10t10.5 20l137 192q8 11 15.5 14.5t14.5 3.5h26q22 0 22 -22v-197h35q22 0 22 -22v-12q0 -22 -22 -22h-35v-53q0 -22 -22 -22h-14zM607 131h94v135z" />
    <glyph glyph-name="questiondown" unicode="&#xbf;" horiz-adv-x="496" 
d="M253 377q10 0 16 -6t6 -16v-24v-24q0 -46 -17 -81t-42 -63.5t-51 -54t-45 -52t-23 -58.5q-5 -41 16 -70.5t57 -44.5t75 -15q59 0 102.5 31.5t56.5 107.5q2 14 9.5 18t14.5 4h16q9 0 15 -5.5t6 -14.5q-1 -42 -17.5 -78t-46 -63t-69 -42.5t-87.5 -15.5q-55 0 -95.5 16
t-66.5 42.5t-38 60t-9 68.5q3 42 22 74.5t45 60t51.5 54t42.5 56t17 65.5v24v24q0 10 6 16t16 6h17zM265 520q10 0 16 -6t6 -16v-38q0 -10 -6 -16.5t-16 -6.5h-38q-10 0 -16.5 6.5t-6.5 16.5v38q0 10 6.5 16t16.5 6h38z" />
    <glyph glyph-name="Agrave" unicode="&#xc0;" horiz-adv-x="650" 
d="M44 0q-8 0 -14 6t-6 14q0 5 2 11l253 649q4 10 10.5 15t18.5 5h34q12 0 18.5 -5t10.5 -15l253 -649q2 -6 2 -11q0 -8 -6 -14t-14 -6h-20q-10 0 -15 5.5t-7 9.5l-62 160h-354l-62 -160q-1 -4 -6.5 -9.5t-15.5 -5.5h-20zM172 235h306l-153 394zM332 750q-10 0 -16.5 1.5
t-14.5 8.5l-109 89q-5 5 -5 12q0 19 19 19h46q15 0 22 -4t15 -14l69 -83q5 -5 5 -13q0 -16 -16 -16h-15z" />
    <glyph glyph-name="Aacute" unicode="&#xc1;" horiz-adv-x="650" 
d="M44 0q-8 0 -14 6t-6 14q0 5 2 11l253 649q4 10 10.5 15t18.5 5h34q12 0 18.5 -5t10.5 -15l253 -649q2 -6 2 -11q0 -8 -6 -14t-14 -6h-20q-10 0 -15 5.5t-7 9.5l-62 160h-354l-62 -160q-1 -4 -6.5 -9.5t-15.5 -5.5h-20zM172 235h306l-153 394zM313 750q-16 0 -16 16
q0 8 5 13l69 83q8 10 15 14t22 4h46q19 0 19 -19q0 -7 -5 -12l-109 -89q-8 -7 -14.5 -8.5t-16.5 -1.5h-15z" />
    <glyph glyph-name="Acircumflex" unicode="&#xc2;" horiz-adv-x="650" 
d="M44 0q-8 0 -14 6t-6 14q0 5 2 11l253 649q4 10 10.5 15t18.5 5h34q12 0 18.5 -5t10.5 -15l253 -649q2 -6 2 -11q0 -8 -6 -14t-14 -6h-20q-10 0 -15 5.5t-7 9.5l-62 160h-354l-62 -160q-1 -4 -6.5 -9.5t-15.5 -5.5h-20zM172 235h306l-153 394zM203 750q-14 0 -14 11
q0 8 12 20l87 85q11 11 18 12.5t14 1.5h10q8 0 15 -1.5t17 -12.5l87 -85q12 -12 12 -20q0 -11 -14 -11h-17q-6 0 -13.5 2t-11.5 5l-80 60l-80 -60q-4 -3 -11.5 -5t-13.5 -2h-17z" />
    <glyph glyph-name="Atilde" unicode="&#xc3;" horiz-adv-x="650" 
d="M44 0q-8 0 -14 6t-6 14q0 5 2 11l253 649q4 10 10.5 15t18.5 5h34q12 0 18.5 -5t10.5 -15l253 -649q2 -6 2 -11q0 -8 -6 -14t-14 -6h-20q-10 0 -15 5.5t-7 9.5l-62 160h-354l-62 -160q-1 -4 -6.5 -9.5t-15.5 -5.5h-20zM172 235h306l-153 394zM374 745q-23 0 -39.5 8.5
t-30 17t-27.5 8.5q-11 0 -16 -7t-9.5 -14.5t-15.5 -7.5h-20q-7 0 -11.5 5t-4.5 11q0 14 5.5 28t16 25.5t24 18t28.5 6.5q24 0 40.5 -8.5t30 -17t27.5 -8.5q12 0 16.5 7.5l9 15t15.5 7.5h20q8 0 12 -5t4 -11q0 -14 -6 -28t-16.5 -25.5t-24 -18.5t-28.5 -7z" />
    <glyph glyph-name="Adieresis" unicode="&#xc4;" horiz-adv-x="650" 
d="M44 0q-8 0 -14 6t-6 14q0 5 2 11l253 649q4 10 10.5 15t18.5 5h34q12 0 18.5 -5t10.5 -15l253 -649q2 -6 2 -11q0 -8 -6 -14t-14 -6h-20q-10 0 -15 5.5t-7 9.5l-62 160h-354l-62 -160q-1 -4 -6.5 -9.5t-15.5 -5.5h-20zM172 235h306l-153 394zM397 750q-10 0 -16 6t-6 16
v38q0 10 6 16.5t16 6.5h38q10 0 16.5 -6.5t6.5 -16.5v-38q0 -10 -6.5 -16t-16.5 -6h-38zM214 750q-10 0 -16 6t-6 16v38q0 10 6 16.5t16 6.5h38q10 0 16.5 -6.5t6.5 -16.5v-38q0 -10 -6.5 -16t-16.5 -6h-38z" />
    <glyph glyph-name="Aring" unicode="&#xc5;" horiz-adv-x="650" 
d="M44 0q-8 0 -14 6t-6 14q0 5 2 11l253 649q4 10 10.5 15t18.5 5h34q12 0 18.5 -5t10.5 -15l253 -649q2 -6 2 -11q0 -8 -6 -14t-14 -6h-20q-10 0 -15 5.5t-7 9.5l-62 160h-354l-62 -160q-1 -4 -6.5 -9.5t-15.5 -5.5h-20zM172 235h306l-153 394zM325 740q-33 0 -56.5 21
t-23.5 54t23.5 54t56.5 21t56.5 -21t23.5 -54t-23.5 -54t-56.5 -21zM325 785q13 0 21.5 8.5t8.5 21.5t-8.5 21.5t-21.5 8.5t-21.5 -8.5t-8.5 -21.5t8.5 -21.5t21.5 -8.5z" />
    <glyph glyph-name="AE" unicode="&#xc6;" horiz-adv-x="920" 
d="M25 0q-8 0 -14 6t-6 14q0 6 4 14l2.5 4.5t13 23t33.5 59t63 111.5t102.5 181t151.5 268q6 11 12.5 15t13.5 4h433q11 0 17 -6t6 -17v-15q0 -10 -6 -16t-17 -6h-349v-255h327q11 0 17 -6t6 -17v-15q0 -10 -6 -16t-17 -6h-327v-265h357q11 0 17 -6t6 -17v-15q0 -10 -6 -16
t-17 -6h-398q-10 0 -16 6t-6 16v153h-262q-33 -59 -51.5 -92t-26.5 -47.5t-10 -17.5l-2 -3q-4 -7 -9.5 -11t-12.5 -4h-23zM194 235h228v398h-1z" />
    <glyph glyph-name="Ccedilla" unicode="&#xc7;" horiz-adv-x="651" 
d="M328 -220q-28 1 -49.5 10.5t-31 21.5t-1.5 19l14 13q9 8 16 3t18.5 -13t33.5 -8q17 0 30 10.5t13 29.5q0 18 -13 28t-30 10q-16 0 -26.5 -4.5t-18 -6t-15.5 6.5l-16 17q-5 6 -1.5 14.5t6.5 15.5l20 47q-72 11 -117.5 47.5t-68 93t-25.5 126.5q-1 41 -1 88t1 90
q3 78 31 139.5t85.5 96.5t148.5 35q71 0 121 -20t81.5 -52.5t47 -70t17.5 -73.5q1 -9 -5.5 -14.5t-15.5 -5.5h-20q-8 0 -14 4.5t-8 16.5q-19 89 -71.5 122t-132.5 33q-91 0 -144.5 -51.5t-57.5 -164.5q-3 -82 0 -168q4 -113 57.5 -164.5t144.5 -51.5q80 0 132.5 33t71.5 122
q2 12 8 16.5t14 4.5h20q9 0 15.5 -5.5t5.5 -14.5q-2 -36 -17.5 -73.5t-47 -70t-81.5 -52.5t-121 -20l-23 -48q6 4 16.5 6t21.5 2q33 0 54.5 -23t21.5 -59t-23.5 -62.5t-70.5 -25.5z" />
    <glyph glyph-name="Egrave" unicode="&#xc8;" horiz-adv-x="592" 
d="M116 0q-10 0 -16 6t-6 16v655q0 11 6 17t16 6h390q11 0 17 -6t6 -17v-15q0 -10 -6 -16t-17 -6h-349v-255h327q11 0 17 -6t6 -17v-15q0 -10 -6 -16t-17 -6h-327v-265h357q11 0 17 -6t6 -17v-15q0 -10 -6 -16t-17 -6h-398zM303 750q-10 0 -16.5 1.5t-14.5 8.5l-109 89
q-5 5 -5 12q0 19 19 19h46q15 0 22 -4t15 -14l69 -83q5 -5 5 -13q0 -16 -16 -16h-15z" />
    <glyph glyph-name="Eacute" unicode="&#xc9;" horiz-adv-x="592" 
d="M116 0q-10 0 -16 6t-6 16v655q0 11 6 17t16 6h390q11 0 17 -6t6 -17v-15q0 -10 -6 -16t-17 -6h-349v-255h327q11 0 17 -6t6 -17v-15q0 -10 -6 -16t-17 -6h-327v-265h357q11 0 17 -6t6 -17v-15q0 -10 -6 -16t-17 -6h-398zM284 750q-16 0 -16 16q0 8 5 13l69 83q8 10 15 14
t22 4h46q19 0 19 -19q0 -7 -5 -12l-109 -89q-8 -7 -14.5 -8.5t-16.5 -1.5h-15z" />
    <glyph glyph-name="Ecircumflex" unicode="&#xca;" horiz-adv-x="592" 
d="M116 0q-10 0 -16 6t-6 16v655q0 11 6 17t16 6h390q11 0 17 -6t6 -17v-15q0 -10 -6 -16t-17 -6h-349v-255h327q11 0 17 -6t6 -17v-15q0 -10 -6 -16t-17 -6h-327v-265h357q11 0 17 -6t6 -17v-15q0 -10 -6 -16t-17 -6h-398zM174 750q-14 0 -14 11q0 8 12 20l87 85
q11 11 18 12.5t14 1.5h10q8 0 15 -1.5t17 -12.5l87 -85q12 -12 12 -20q0 -11 -14 -11h-17q-6 0 -13.5 2t-11.5 5l-80 60l-80 -60q-4 -3 -11.5 -5t-13.5 -2h-17z" />
    <glyph glyph-name="Edieresis" unicode="&#xcb;" horiz-adv-x="592" 
d="M116 0q-10 0 -16 6t-6 16v655q0 11 6 17t16 6h390q11 0 17 -6t6 -17v-15q0 -10 -6 -16t-17 -6h-349v-255h327q11 0 17 -6t6 -17v-15q0 -10 -6 -16t-17 -6h-327v-265h357q11 0 17 -6t6 -17v-15q0 -10 -6 -16t-17 -6h-398zM368 750q-10 0 -16 6t-6 16v38q0 10 6 16.5
t16 6.5h38q10 0 16.5 -6.5t6.5 -16.5v-38q0 -10 -6.5 -16t-16.5 -6h-38zM185 750q-10 0 -16 6t-6 16v38q0 10 6 16.5t16 6.5h38q10 0 16.5 -6.5t6.5 -16.5v-38q0 -10 -6.5 -16t-16.5 -6h-38z" />
    <glyph glyph-name="Igrave" unicode="&#xcc;" horiz-adv-x="251" 
d="M116 0q-10 0 -16 6t-6 16v656q0 10 6 16t16 6h19q10 0 16 -6t6 -16v-656q0 -10 -6 -16t-16 -6h-19zM133 750q-10 0 -16.5 1.5t-14.5 8.5l-109 89q-5 5 -5 12q0 19 19 19h46q15 0 22 -4t15 -14l69 -83q5 -5 5 -13q0 -16 -16 -16h-15z" />
    <glyph glyph-name="Iacute" unicode="&#xcd;" horiz-adv-x="251" 
d="M116 0q-10 0 -16 6t-6 16v656q0 10 6 16t16 6h19q10 0 16 -6t6 -16v-656q0 -10 -6 -16t-16 -6h-19zM114 750q-16 0 -16 16q0 8 5 13l69 83q8 10 15 14t22 4h46q19 0 19 -19q0 -7 -5 -12l-109 -89q-8 -7 -14.5 -8.5t-16.5 -1.5h-15z" />
    <glyph glyph-name="Icircumflex" unicode="&#xce;" horiz-adv-x="251" 
d="M116 0q-10 0 -16 6t-6 16v656q0 10 6 16t16 6h19q10 0 16 -6t6 -16v-656q0 -10 -6 -16t-16 -6h-19zM4 750q-14 0 -14 11q0 8 12 20l87 85q11 11 18 12.5t14 1.5h10q8 0 15 -1.5t17 -12.5l87 -85q12 -12 12 -20q0 -11 -14 -11h-17q-6 0 -13.5 2t-11.5 5l-80 60l-80 -60
q-4 -3 -11.5 -5t-13.5 -2h-17z" />
    <glyph glyph-name="Idieresis" unicode="&#xcf;" horiz-adv-x="251" 
d="M116 0q-10 0 -16 6t-6 16v656q0 10 6 16t16 6h19q10 0 16 -6t6 -16v-656q0 -10 -6 -16t-16 -6h-19zM198 750q-10 0 -16 6t-6 16v38q0 10 6 16.5t16 6.5h38q10 0 16.5 -6.5t6.5 -16.5v-38q0 -10 -6.5 -16t-16.5 -6h-38zM15 750q-10 0 -16 6t-6 16v38q0 10 6 16.5t16 6.5
h38q10 0 16.5 -6.5t6.5 -16.5v-38q0 -10 -6.5 -16t-16.5 -6h-38z" />
    <glyph glyph-name="Eth" unicode="&#xd0;" horiz-adv-x="683" 
d="M122 0q-10 0 -16 6t-6 16v300h-63q-10 0 -16 6t-6 16v16q0 10 6 16t16 6h63v295q0 11 6 17t16 6h213q106 0 166 -31t85.5 -91.5t26.5 -147.5q1 -45 1 -79.5t-1 -79.5q-2 -92 -27 -152t-84 -89.5t-162 -29.5h-218zM163 60h172q80 0 126 21.5t67 69t22 125.5q1 30 1 52.5
v44.5t-1 52q-2 110 -51 162.5t-169 52.5h-167v-258h150q10 0 16 -6t6 -16v-16q0 -10 -6 -16t-16 -6h-150v-262z" />
    <glyph glyph-name="Ntilde" unicode="&#xd1;" horiz-adv-x="684" 
d="M116 0q-10 0 -16 6t-6 16v655q0 11 6 17t16 6h21q10 0 15 -5t6 -7l369 -564v553q0 11 6 17t16 6h18q11 0 17 -6t6 -17v-654q0 -10 -6 -16.5t-16 -6.5h-22q-10 0 -14.5 5t-6.5 7l-368 562v-552q0 -10 -6 -16t-17 -6h-18zM391 745q-23 0 -39.5 8.5t-30 17t-27.5 8.5
q-11 0 -16 -7t-9.5 -14.5t-15.5 -7.5h-20q-7 0 -11.5 5t-4.5 11q0 14 5.5 28t16 25.5t24 18t28.5 6.5q24 0 40.5 -8.5t30 -17t27.5 -8.5q12 0 16.5 7.5l9 15t15.5 7.5h20q8 0 12 -5t4 -11q0 -14 -6 -28t-16.5 -25.5t-24 -18.5t-28.5 -7z" />
    <glyph glyph-name="Ograve" unicode="&#xd2;" horiz-adv-x="662" 
d="M331 -10q-83 0 -141 29.5t-89 91t-34 155.5q-1 45 -1 84t1 84q3 93 36 154.5t91.5 91.5t136.5 30t136.5 -30t92 -91.5t35.5 -154.5q2 -45 2 -84t-2 -84q-2 -94 -33.5 -155.5t-89.5 -91t-141 -29.5zM331 50q86 0 141.5 52t59.5 169q2 45 2 79t-2 79q-2 78 -28.5 127
t-71 71.5t-101.5 22.5q-56 0 -100.5 -22.5t-71 -71.5t-29.5 -127q-1 -45 -1 -79t1 -79q4 -117 60 -169t141 -52zM338 750q-10 0 -16.5 1.5t-14.5 8.5l-109 89q-5 5 -5 12q0 19 19 19h46q15 0 22 -4t15 -14l69 -83q5 -5 5 -13q0 -16 -16 -16h-15z" />
    <glyph glyph-name="Oacute" unicode="&#xd3;" horiz-adv-x="662" 
d="M331 -10q-83 0 -141 29.5t-89 91t-34 155.5q-1 45 -1 84t1 84q3 93 36 154.5t91.5 91.5t136.5 30t136.5 -30t92 -91.5t35.5 -154.5q2 -45 2 -84t-2 -84q-2 -94 -33.5 -155.5t-89.5 -91t-141 -29.5zM331 50q86 0 141.5 52t59.5 169q2 45 2 79t-2 79q-2 78 -28.5 127
t-71 71.5t-101.5 22.5q-56 0 -100.5 -22.5t-71 -71.5t-29.5 -127q-1 -45 -1 -79t1 -79q4 -117 60 -169t141 -52zM319 750q-16 0 -16 16q0 8 5 13l69 83q8 10 15 14t22 4h46q19 0 19 -19q0 -7 -5 -12l-109 -89q-8 -7 -14.5 -8.5t-16.5 -1.5h-15z" />
    <glyph glyph-name="Ocircumflex" unicode="&#xd4;" horiz-adv-x="662" 
d="M331 -10q-83 0 -141 29.5t-89 91t-34 155.5q-1 45 -1 84t1 84q3 93 36 154.5t91.5 91.5t136.5 30t136.5 -30t92 -91.5t35.5 -154.5q2 -45 2 -84t-2 -84q-2 -94 -33.5 -155.5t-89.5 -91t-141 -29.5zM331 50q86 0 141.5 52t59.5 169q2 45 2 79t-2 79q-2 78 -28.5 127
t-71 71.5t-101.5 22.5q-56 0 -100.5 -22.5t-71 -71.5t-29.5 -127q-1 -45 -1 -79t1 -79q4 -117 60 -169t141 -52zM209 750q-14 0 -14 11q0 8 12 20l87 85q11 11 18 12.5t14 1.5h10q8 0 15 -1.5t17 -12.5l87 -85q12 -12 12 -20q0 -11 -14 -11h-17q-6 0 -13.5 2t-11.5 5l-80 60
l-80 -60q-4 -3 -11.5 -5t-13.5 -2h-17z" />
    <glyph glyph-name="Otilde" unicode="&#xd5;" horiz-adv-x="662" 
d="M331 -10q-83 0 -141 29.5t-89 91t-34 155.5q-1 45 -1 84t1 84q3 93 36 154.5t91.5 91.5t136.5 30t136.5 -30t92 -91.5t35.5 -154.5q2 -45 2 -84t-2 -84q-2 -94 -33.5 -155.5t-89.5 -91t-141 -29.5zM331 50q86 0 141.5 52t59.5 169q2 45 2 79t-2 79q-2 78 -28.5 127
t-71 71.5t-101.5 22.5q-56 0 -100.5 -22.5t-71 -71.5t-29.5 -127q-1 -45 -1 -79t1 -79q4 -117 60 -169t141 -52zM380 745q-23 0 -39.5 8.5t-30 17t-27.5 8.5q-11 0 -16 -7t-9.5 -14.5t-15.5 -7.5h-20q-7 0 -11.5 5t-4.5 11q0 14 5.5 28t16 25.5t24 18t28.5 6.5
q24 0 40.5 -8.5t30 -17t27.5 -8.5q12 0 16.5 7.5l9 15t15.5 7.5h20q8 0 12 -5t4 -11q0 -14 -6 -28t-16.5 -25.5t-24 -18.5t-28.5 -7z" />
    <glyph glyph-name="Odieresis" unicode="&#xd6;" horiz-adv-x="662" 
d="M331 -10q-83 0 -141 29.5t-89 91t-34 155.5q-1 45 -1 84t1 84q3 93 36 154.5t91.5 91.5t136.5 30t136.5 -30t92 -91.5t35.5 -154.5q2 -45 2 -84t-2 -84q-2 -94 -33.5 -155.5t-89.5 -91t-141 -29.5zM331 50q86 0 141.5 52t59.5 169q2 45 2 79t-2 79q-2 78 -28.5 127
t-71 71.5t-101.5 22.5q-56 0 -100.5 -22.5t-71 -71.5t-29.5 -127q-1 -45 -1 -79t1 -79q4 -117 60 -169t141 -52zM403 750q-10 0 -16 6t-6 16v38q0 10 6 16.5t16 6.5h38q10 0 16.5 -6.5t6.5 -16.5v-38q0 -10 -6.5 -16t-16.5 -6h-38zM220 750q-10 0 -16 6t-6 16v38
q0 10 6 16.5t16 6.5h38q10 0 16.5 -6.5t6.5 -16.5v-38q0 -10 -6.5 -16t-16.5 -6h-38z" />
    <glyph glyph-name="multiply" unicode="&#xd7;" horiz-adv-x="541" 
d="M86 102l-12 12q-7 7 -7 15.5t7 15.5l153 153l-153 154q-7 7 -7 15.5t7 15.5l12 12q7 7 15.5 7t15.5 -7l153 -154l154 154q7 7 15.5 7t15.5 -7l12 -12q7 -7 7 -15.5t-7 -15.5l-154 -154l154 -153q7 -7 7 -15.5t-7 -15.5l-12 -12q-7 -7 -15.5 -7t-15.5 7l-154 153
l-153 -153q-7 -7 -15.5 -7t-15.5 7z" />
    <glyph glyph-name="Oslash" unicode="&#xd8;" horiz-adv-x="662" 
d="M331 -10q-83 0 -141 29.5t-89 91t-34 155.5q-1 45 -1 84t1 84q3 93 36 154.5t91.5 91.5t136.5 30t136.5 -30t92 -91.5t35.5 -154.5q2 -45 2 -84t-2 -84q-2 -94 -33.5 -155.5t-89.5 -91t-141 -29.5zM331 50q86 0 141.5 52t59.5 169q2 45 2 79t-2 79q-2 78 -28.5 127
t-71 71.5t-101.5 22.5q-56 0 -100.5 -22.5t-71 -71.5t-29.5 -127q-1 -45 -1 -79t1 -79q4 -117 60 -169t141 -52zM107 -65q-12 0 -17.5 11t0.5 21l424 783q2 4 7 9.5t15 5.5h19q11 0 17 -8t-2 -24l-424 -783q-2 -4 -7 -9.5t-15 -5.5h-17z" />
    <glyph glyph-name="Ugrave" unicode="&#xd9;" horiz-adv-x="691" 
d="M346 -10q-81 0 -138.5 30t-88.5 92t-31 159v406q0 11 6 17t16 6h18q11 0 17 -6t6 -17v-409q0 -112 52.5 -165t142.5 -53q89 0 141.5 53t52.5 165v409q0 11 6.5 17t16.5 6h18q10 0 16 -6t6 -17v-406q0 -97 -30.5 -159t-87.5 -92t-139 -30zM353 750q-10 0 -16.5 1.5
t-14.5 8.5l-109 89q-5 5 -5 12q0 19 19 19h46q15 0 22 -4t15 -14l69 -83q5 -5 5 -13q0 -16 -16 -16h-15z" />
    <glyph glyph-name="Uacute" unicode="&#xda;" horiz-adv-x="691" 
d="M346 -10q-81 0 -138.5 30t-88.5 92t-31 159v406q0 11 6 17t16 6h18q11 0 17 -6t6 -17v-409q0 -112 52.5 -165t142.5 -53q89 0 141.5 53t52.5 165v409q0 11 6.5 17t16.5 6h18q10 0 16 -6t6 -17v-406q0 -97 -30.5 -159t-87.5 -92t-139 -30zM334 750q-16 0 -16 16q0 8 5 13
l69 83q8 10 15 14t22 4h46q19 0 19 -19q0 -7 -5 -12l-109 -89q-8 -7 -14.5 -8.5t-16.5 -1.5h-15z" />
    <glyph glyph-name="Ucircumflex" unicode="&#xdb;" horiz-adv-x="691" 
d="M346 -10q-81 0 -138.5 30t-88.5 92t-31 159v406q0 11 6 17t16 6h18q11 0 17 -6t6 -17v-409q0 -112 52.5 -165t142.5 -53q89 0 141.5 53t52.5 165v409q0 11 6.5 17t16.5 6h18q10 0 16 -6t6 -17v-406q0 -97 -30.5 -159t-87.5 -92t-139 -30zM224 750q-14 0 -14 11q0 8 12 20
l87 85q11 11 18 12.5t14 1.5h10q8 0 15 -1.5t17 -12.5l87 -85q12 -12 12 -20q0 -11 -14 -11h-17q-6 0 -13.5 2t-11.5 5l-80 60l-80 -60q-4 -3 -11.5 -5t-13.5 -2h-17z" />
    <glyph glyph-name="Udieresis" unicode="&#xdc;" horiz-adv-x="691" 
d="M346 -10q-81 0 -138.5 30t-88.5 92t-31 159v406q0 11 6 17t16 6h18q11 0 17 -6t6 -17v-409q0 -112 52.5 -165t142.5 -53q89 0 141.5 53t52.5 165v409q0 11 6.5 17t16.5 6h18q10 0 16 -6t6 -17v-406q0 -97 -30.5 -159t-87.5 -92t-139 -30zM418 750q-10 0 -16 6t-6 16v38
q0 10 6 16.5t16 6.5h38q10 0 16.5 -6.5t6.5 -16.5v-38q0 -10 -6.5 -16t-16.5 -6h-38zM235 750q-10 0 -16 6t-6 16v38q0 10 6 16.5t16 6.5h38q10 0 16.5 -6.5t6.5 -16.5v-38q0 -10 -6.5 -16t-16.5 -6h-38z" />
    <glyph glyph-name="Yacute" unicode="&#xdd;" horiz-adv-x="632" 
d="M306 0q-10 0 -16 6t-6 16v245l-244 400q-1 3 -2.5 6t-1.5 7q0 8 6 14t14 6h20q7 0 13 -3.5t10 -11.5l217 -353l217 353q5 8 10.5 11.5t12.5 3.5h20q8 0 14 -6t6 -14q0 -4 -1 -7t-3 -6l-244 -400v-245q0 -10 -6 -16t-17 -6h-19zM304 750q-16 0 -16 16q0 8 5 13l69 83
q8 10 15 14t22 4h46q19 0 19 -19q0 -7 -5 -12l-109 -89q-8 -7 -14.5 -8.5t-16.5 -1.5h-15z" />
    <glyph glyph-name="Thorn" unicode="&#xde;" horiz-adv-x="633" 
d="M116 0q-10 0 -16 6t-6 16v656q0 10 6 16t16 6h19q10 0 16 -6t6 -16v-121h202q70 0 121.5 -23.5t80 -69.5t28.5 -114t-28.5 -114t-80 -69.5t-121.5 -23.5h-202v-121q0 -10 -6 -16t-17 -6h-18zM157 203h197q87 0 129.5 38t42.5 109t-42.5 109t-129.5 38h-197v-294z" />
    <glyph glyph-name="germandbls" unicode="&#xdf;" horiz-adv-x="568" 
d="M104 0q-10 0 -16 6t-6 16v480q0 55 20.5 102t65 76.5t116.5 29.5q73 0 117.5 -28t65 -69.5t20.5 -84.5t-14 -73.5t-35 -49.5t-41 -28q48 -15 73.5 -43t35.5 -62.5t10 -69.5q0 -33 -12 -68.5t-37.5 -66t-66.5 -49t-100 -18.5h-75q-10 0 -16 6t-6 16v14q0 10 6 16t16 6h65
q82 0 123.5 42t41.5 102q0 61 -41.5 103t-123.5 42h-65q-10 0 -16 6t-6 16v14q0 10 6 16t16 6h55q74 1 110 32.5t36 90.5q0 54 -39 89t-103 35t-102.5 -38.5t-38.5 -116.5v-475q0 -10 -6 -16t-16 -6h-17z" />
    <glyph glyph-name="agrave" unicode="&#xe0;" horiz-adv-x="536" 
d="M221 -10q-48 0 -88.5 20t-65.5 53.5t-25 75.5q0 68 55 109t143 53l158 22v35q0 53 -32.5 83.5t-103.5 30.5q-52 0 -84 -20.5t-44 -53.5q-5 -15 -19 -15h-16q-12 0 -17 6.5t-5 15.5q0 14 10.5 35t32.5 41.5t57 34.5t85 14q59 0 97.5 -16t60 -41.5t30.5 -56.5t9 -61v-333
q0 -10 -6 -16t-16 -6h-17q-10 0 -16 6t-6 16v47q-12 -18 -34 -36t-56.5 -30.5t-86.5 -12.5zM231 48q46 0 84 20t60.5 61.5t22.5 104.5v34l-129 -18q-82 -11 -124 -38t-42 -68q0 -33 19 -54t48.5 -31.5t60.5 -10.5zM280 595q-10 0 -16.5 1.5t-14.5 8.5l-109 89q-5 5 -5 12
q0 19 19 19h41q15 0 22 -4t15 -14l69 -83q5 -5 5 -13q0 -16 -16 -16h-10z" />
    <glyph glyph-name="aacute" unicode="&#xe1;" horiz-adv-x="536" 
d="M221 -10q-48 0 -88.5 20t-65.5 53.5t-25 75.5q0 68 55 109t143 53l158 22v35q0 53 -32.5 83.5t-103.5 30.5q-52 0 -84 -20.5t-44 -53.5q-5 -15 -19 -15h-16q-12 0 -17 6.5t-5 15.5q0 14 10.5 35t32.5 41.5t57 34.5t85 14q59 0 97.5 -16t60 -41.5t30.5 -56.5t9 -61v-333
q0 -10 -6 -16t-16 -6h-17q-10 0 -16 6t-6 16v47q-12 -18 -34 -36t-56.5 -30.5t-86.5 -12.5zM231 48q46 0 84 20t60.5 61.5t22.5 104.5v34l-129 -18q-82 -11 -124 -38t-42 -68q0 -33 19 -54t48.5 -31.5t60.5 -10.5zM251 595q-16 0 -16 16q0 8 5 13l69 83q8 10 15 14t22 4h41
q19 0 19 -19q0 -7 -5 -12l-109 -89q-8 -7 -14.5 -8.5t-16.5 -1.5h-10z" />
    <glyph glyph-name="acircumflex" unicode="&#xe2;" horiz-adv-x="536" 
d="M221 -10q-48 0 -88.5 20t-65.5 53.5t-25 75.5q0 68 55 109t143 53l158 22v35q0 53 -32.5 83.5t-103.5 30.5q-52 0 -84 -20.5t-44 -53.5q-5 -15 -19 -15h-16q-12 0 -17 6.5t-5 15.5q0 14 10.5 35t32.5 41.5t57 34.5t85 14q59 0 97.5 -16t60 -41.5t30.5 -56.5t9 -61v-333
q0 -10 -6 -16t-16 -6h-17q-10 0 -16 6t-6 16v47q-12 -18 -34 -36t-56.5 -30.5t-86.5 -12.5zM231 48q46 0 84 20t60.5 61.5t22.5 104.5v34l-129 -18q-82 -11 -124 -38t-42 -68q0 -33 19 -54t48.5 -31.5t60.5 -10.5zM143 595q-14 0 -14 11q0 8 12 20l87 85q11 11 18 12.5
t14 1.5h10q8 0 15 -1.5t17 -12.5l87 -85q12 -12 12 -20q0 -11 -14 -11h-17q-6 0 -13.5 2t-11.5 5l-80 60l-80 -60q-4 -3 -11.5 -5t-13.5 -2h-17z" />
    <glyph glyph-name="atilde" unicode="&#xe3;" horiz-adv-x="536" 
d="M221 -10q-48 0 -88.5 20t-65.5 53.5t-25 75.5q0 68 55 109t143 53l158 22v35q0 53 -32.5 83.5t-103.5 30.5q-52 0 -84 -20.5t-44 -53.5q-5 -15 -19 -15h-16q-12 0 -17 6.5t-5 15.5q0 14 10.5 35t32.5 41.5t57 34.5t85 14q59 0 97.5 -16t60 -41.5t30.5 -56.5t9 -61v-333
q0 -10 -6 -16t-16 -6h-17q-10 0 -16 6t-6 16v47q-12 -18 -34 -36t-56.5 -30.5t-86.5 -12.5zM231 48q46 0 84 20t60.5 61.5t22.5 104.5v34l-129 -18q-82 -11 -124 -38t-42 -68q0 -33 19 -54t48.5 -31.5t60.5 -10.5zM312 590q-23 0 -37.5 8.5t-26.5 17t-26 8.5q-11 0 -16 -7
t-9.5 -14.5t-15.5 -7.5h-20q-7 0 -11.5 5t-4.5 11q0 14 5.5 27t15 23.5t22.5 16.5t28 6q24 0 38.5 -8.5t26.5 -17t26 -8.5q12 0 16.5 7.5l9 15t15.5 7.5h20q8 0 12 -5t4 -11q0 -14 -5.5 -27.5t-15.5 -24t-23 -16.5t-28 -6z" />
    <glyph glyph-name="adieresis" unicode="&#xe4;" horiz-adv-x="536" 
d="M221 -10q-48 0 -88.5 20t-65.5 53.5t-25 75.5q0 68 55 109t143 53l158 22v35q0 53 -32.5 83.5t-103.5 30.5q-52 0 -84 -20.5t-44 -53.5q-5 -15 -19 -15h-16q-12 0 -17 6.5t-5 15.5q0 14 10.5 35t32.5 41.5t57 34.5t85 14q59 0 97.5 -16t60 -41.5t30.5 -56.5t9 -61v-333
q0 -10 -6 -16t-16 -6h-17q-10 0 -16 6t-6 16v47q-12 -18 -34 -36t-56.5 -30.5t-86.5 -12.5zM231 48q46 0 84 20t60.5 61.5t22.5 104.5v34l-129 -18q-82 -11 -124 -38t-42 -68q0 -33 19 -54t48.5 -31.5t60.5 -10.5zM322 627q-10 0 -16 6t-6 16v38q0 10 6 16.5t16 6.5h38
q10 0 16.5 -6.5t6.5 -16.5v-38q0 -10 -6.5 -16t-16.5 -6h-38zM169 627q-10 0 -16 6t-6 16v38q0 10 6 16.5t16 6.5h38q10 0 16.5 -6.5t6.5 -16.5v-38q0 -10 -6.5 -16t-16.5 -6h-38z" />
    <glyph glyph-name="aring" unicode="&#xe5;" horiz-adv-x="536" 
d="M221 -10q-48 0 -88.5 20t-65.5 53.5t-25 75.5q0 68 55 109t143 53l158 22v35q0 53 -32.5 83.5t-103.5 30.5q-52 0 -84 -20.5t-44 -53.5q-5 -15 -19 -15h-16q-12 0 -17 6.5t-5 15.5q0 14 10.5 35t32.5 41.5t57 34.5t85 14q59 0 97.5 -16t60 -41.5t30.5 -56.5t9 -61v-333
q0 -10 -6 -16t-16 -6h-17q-10 0 -16 6t-6 16v47q-12 -18 -34 -36t-56.5 -30.5t-86.5 -12.5zM231 48q46 0 84 20t60.5 61.5t22.5 104.5v34l-129 -18q-82 -11 -124 -38t-42 -68q0 -33 19 -54t48.5 -31.5t60.5 -10.5zM265 590q-33 0 -56.5 21t-23.5 54t23.5 54t56.5 21
t56.5 -21t23.5 -54t-23.5 -54t-56.5 -21zM265 635q13 0 21.5 8.5t8.5 21.5t-8.5 21.5t-21.5 8.5t-21.5 -8.5t-8.5 -21.5t8.5 -21.5t21.5 -8.5z" />
    <glyph glyph-name="ae" unicode="&#xe6;" horiz-adv-x="881" 
d="M222 -10q-53 0 -93.5 20t-63 53.5t-22.5 75.5q0 68 55 110.5t143 54.5l158 22v32q0 53 -32.5 83.5t-103.5 30.5q-37 0 -63 -10t-41.5 -25.5t-21.5 -32.5q-4 -12 -9.5 -16.5t-14.5 -4.5h-14q-9 0 -15.5 6.5t-6.5 15.5q0 14 10.5 35t32.5 41.5t57.5 34.5t85.5 14
q76 0 118 -25.5t60 -62.5q26 39 68.5 63.5t105.5 24.5q70 0 112.5 -25.5t64.5 -65.5t30 -84.5t8 -82.5v-15q0 -10 -6.5 -16t-16.5 -6h-346v-10q2 -65 25.5 -104t58.5 -56t69 -17q39 0 77 15.5t62 49.5q8 12 13.5 15t16.5 3h12q21 0 21 -20q0 -11 -12.5 -31t-38 -40.5
t-63 -35t-88.5 -14.5q-73 0 -118.5 31t-68.5 79q-29 -55 -80 -82.5t-125 -27.5zM232 48q46 0 84 20t60.5 61.5t22.5 104.5v34l-129 -18q-82 -11 -124 -38t-42 -68q0 -33 19 -54t48.5 -31.5t60.5 -10.5zM461 291h308v4q0 76 -37.5 126.5t-116.5 50.5q-38 0 -72.5 -19t-57 -58
t-24.5 -100v-4z" />
    <glyph glyph-name="ccedilla" unicode="&#xe7;" horiz-adv-x="536" 
d="M275 -220q-28 1 -49.5 10.5t-31 21.5t-1.5 19l14 13q9 8 16 3t18.5 -13t33.5 -8q17 0 30 10.5t13 29.5q0 18 -13 28t-30 10q-16 0 -26.5 -4.5t-18 -6t-15.5 6.5l-16 17q-5 6 -1.5 14.5t6.5 15.5l21 48q-80 14 -123 73t-45 152q-1 15 -1 40t1 40q2 72 27.5 123.5t74.5 79
t119 27.5q53 0 91.5 -14.5t63.5 -38t38 -51.5t14 -55q1 -10 -6 -16t-16 -6h-14q-10 0 -14.5 4.5t-9.5 16.5q-21 57 -57.5 79.5t-89.5 22.5q-68 0 -112.5 -41.5t-47.5 -135.5q-2 -35 0 -70q3 -94 47.5 -135.5t112.5 -41.5q53 0 89.5 22.5t57.5 79.5q5 12 9.5 16.5t14.5 4.5
h14q9 0 16 -6t6 -16q-1 -27 -14 -55t-38 -51.5t-63.5 -38t-91.5 -14.5l-23 -48q6 4 16.5 6t21.5 2q33 0 54.5 -23t21.5 -59t-23.5 -62.5t-70.5 -25.5z" />
    <glyph glyph-name="egrave" unicode="&#xe8;" horiz-adv-x="546" 
d="M274 -10q-97 0 -154 63.5t-65 166.5q-1 15 -1 40t1 40q5 68 32 120t74.5 81t112.5 29q70 0 119 -31t75.5 -89t26.5 -138v-15q0 -10 -6.5 -16t-16.5 -6h-356v-4v-6q2 -45 21 -85.5t54 -66t83 -25.5q43 0 71.5 13t45.5 28.5t22 23.5q9 13 14 15.5t16 2.5h16q9 0 15.5 -5.5
t5.5 -14.5q-1 -14 -15.5 -34.5t-41 -40.5t-64.5 -33t-85 -13zM116 291h318v4q0 50 -19 90t-55 63.5t-86 23.5t-85.5 -23.5t-54 -63.5t-18.5 -90v-4zM289 595q-10 0 -16.5 1.5t-14.5 8.5l-109 89q-5 5 -5 12q0 19 19 19h41q15 0 22 -4t15 -14l69 -83q5 -5 5 -13
q0 -16 -16 -16h-10z" />
    <glyph glyph-name="eacute" unicode="&#xe9;" horiz-adv-x="546" 
d="M274 -10q-97 0 -154 63.5t-65 166.5q-1 15 -1 40t1 40q5 68 32 120t74.5 81t112.5 29q70 0 119 -31t75.5 -89t26.5 -138v-15q0 -10 -6.5 -16t-16.5 -6h-356v-4v-6q2 -45 21 -85.5t54 -66t83 -25.5q43 0 71.5 13t45.5 28.5t22 23.5q9 13 14 15.5t16 2.5h16q9 0 15.5 -5.5
t5.5 -14.5q-1 -14 -15.5 -34.5t-41 -40.5t-64.5 -33t-85 -13zM116 291h318v4q0 50 -19 90t-55 63.5t-86 23.5t-85.5 -23.5t-54 -63.5t-18.5 -90v-4zM260 595q-16 0 -16 16q0 8 5 13l69 83q8 10 15 14t22 4h41q19 0 19 -19q0 -7 -5 -12l-109 -89q-8 -7 -14.5 -8.5t-16.5 -1.5
h-10z" />
    <glyph glyph-name="ecircumflex" unicode="&#xea;" horiz-adv-x="546" 
d="M274 -10q-97 0 -154 63.5t-65 166.5q-1 15 -1 40t1 40q5 68 32 120t74.5 81t112.5 29q70 0 119 -31t75.5 -89t26.5 -138v-15q0 -10 -6.5 -16t-16.5 -6h-356v-4v-6q2 -45 21 -85.5t54 -66t83 -25.5q43 0 71.5 13t45.5 28.5t22 23.5q9 13 14 15.5t16 2.5h16q9 0 15.5 -5.5
t5.5 -14.5q-1 -14 -15.5 -34.5t-41 -40.5t-64.5 -33t-85 -13zM116 291h318v4q0 50 -19 90t-55 63.5t-86 23.5t-85.5 -23.5t-54 -63.5t-18.5 -90v-4zM152 595q-14 0 -14 11q0 8 12 20l87 85q11 11 18 12.5t14 1.5h10q8 0 15 -1.5t17 -12.5l87 -85q12 -12 12 -20
q0 -11 -14 -11h-17q-6 0 -13.5 2t-11.5 5l-80 60l-80 -60q-4 -3 -11.5 -5t-13.5 -2h-17z" />
    <glyph glyph-name="edieresis" unicode="&#xeb;" horiz-adv-x="546" 
d="M274 -10q-97 0 -154 63.5t-65 166.5q-1 15 -1 40t1 40q5 68 32 120t74.5 81t112.5 29q70 0 119 -31t75.5 -89t26.5 -138v-15q0 -10 -6.5 -16t-16.5 -6h-356v-4v-6q2 -45 21 -85.5t54 -66t83 -25.5q43 0 71.5 13t45.5 28.5t22 23.5q9 13 14 15.5t16 2.5h16q9 0 15.5 -5.5
t5.5 -14.5q-1 -14 -15.5 -34.5t-41 -40.5t-64.5 -33t-85 -13zM116 291h318v4q0 50 -19 90t-55 63.5t-86 23.5t-85.5 -23.5t-54 -63.5t-18.5 -90v-4zM331 627q-10 0 -16 6t-6 16v38q0 10 6 16.5t16 6.5h38q10 0 16.5 -6.5t6.5 -16.5v-38q0 -10 -6.5 -16t-16.5 -6h-38z
M178 627q-10 0 -16 6t-6 16v38q0 10 6 16.5t16 6.5h38q10 0 16.5 -6.5t6.5 -16.5v-38q0 -10 -6.5 -16t-16.5 -6h-38z" />
    <glyph glyph-name="igrave" unicode="&#xec;" horiz-adv-x="223" 
d="M103 0q-10 0 -16 6t-6 16v476q0 10 6 16t16 6h17q10 0 16 -6t6 -16v-476q0 -10 -6 -16t-16 -6h-17zM127 595q-10 0 -16.5 1.5t-14.5 8.5l-109 89q-5 5 -5 12q0 19 19 19h41q15 0 22 -4t15 -14l69 -83q5 -5 5 -13q0 -16 -16 -16h-10z" />
    <glyph glyph-name="iacute" unicode="&#xed;" horiz-adv-x="223" 
d="M103 0q-10 0 -16 6t-6 16v476q0 10 6 16t16 6h17q10 0 16 -6t6 -16v-476q0 -10 -6 -16t-16 -6h-17zM98 595q-16 0 -16 16q0 8 5 13l69 83q8 10 15 14t22 4h41q19 0 19 -19q0 -7 -5 -12l-109 -89q-8 -7 -14.5 -8.5t-16.5 -1.5h-10z" />
    <glyph glyph-name="icircumflex" unicode="&#xee;" horiz-adv-x="223" 
d="M103 0q-10 0 -16 6t-6 16v476q0 10 6 16t16 6h17q10 0 16 -6t6 -16v-476q0 -10 -6 -16t-16 -6h-17zM-10 595q-14 0 -14 11q0 8 12 20l87 85q11 11 18 12.5t14 1.5h10q8 0 15 -1.5t17 -12.5l87 -85q12 -12 12 -20q0 -11 -14 -11h-17q-6 0 -13.5 2t-11.5 5l-80 60l-80 -60
q-4 -3 -11.5 -5t-13.5 -2h-17z" />
    <glyph glyph-name="idieresis" unicode="&#xef;" horiz-adv-x="223" 
d="M103 0q-10 0 -16 6t-6 16v476q0 10 6 16t16 6h17q10 0 16 -6t6 -16v-476q0 -10 -6 -16t-16 -6h-17zM169 627q-10 0 -16 6t-6 16v38q0 10 6 16.5t16 6.5h38q10 0 16.5 -6.5t6.5 -16.5v-38q0 -10 -6.5 -16t-16.5 -6h-38zM16 627q-10 0 -16 6t-6 16v38q0 10 6 16.5t16 6.5
h38q10 0 16.5 -6.5t6.5 -16.5v-38q0 -10 -6.5 -16t-16.5 -6h-38z" />
    <glyph glyph-name="eth" unicode="&#xf0;" horiz-adv-x="550" 
d="M273 -10q-72 0 -121 31.5t-73.5 86.5t-24.5 123q0 69 24.5 123t73.5 85t121 31q40 0 73.5 -10t58.5 -29q-23 70 -65 122l-96 -37q-7 -3 -13 -3q-8 0 -13.5 4.5t-5.5 13.5v19q0 11 5 16t17 9l62 24q-15 14 -32 29t-35 30q-10 8 -13.5 13t-3.5 9q0 9 5.5 14.5t14.5 5.5h20
q12 0 20.5 -3.5t15.5 -9.5q19 -16 36 -32t33 -33l93 36q8 3 13 3q8 0 13.5 -4.5t5.5 -13.5v-19q0 -11 -5 -15.5t-17 -9.5l-62 -24q43 -55 68 -135t26 -208v-1.5v-1.5q0 -68 -25 -122.5t-73.5 -85.5t-120.5 -31zM273 48q52 0 87 24t53 65t18 91v2v2q0 50 -17.5 91t-52.5 65
t-88 24q-52 0 -87.5 -24t-53 -65t-17.5 -91v-3.5v-2.5q1 -49 19 -89.5t53 -64.5t86 -24z" />
    <glyph glyph-name="ntilde" unicode="&#xf1;" horiz-adv-x="590" 
d="M103 0q-10 0 -16 6t-6 16v476q0 10 6 16t16 6h17q10 0 16 -6t6 -16v-47q27 35 65.5 57t102.5 22q68 0 113.5 -29.5t68 -80t22.5 -114.5v-284q0 -10 -6 -16t-16 -6h-17q-10 0 -16 6t-6 16v279q0 80 -39 125.5t-114 45.5q-71 0 -114.5 -45.5t-43.5 -125.5v-279
q0 -10 -6 -16t-16 -6h-17zM344 590q-23 0 -37.5 8.5t-26.5 17t-26 8.5q-11 0 -16 -7t-9.5 -14.5t-15.5 -7.5h-20q-7 0 -11.5 5t-4.5 11q0 14 5.5 27t15 23.5t22.5 16.5t28 6q24 0 38.5 -8.5t26.5 -17t26 -8.5q12 0 16.5 7.5l9 15t15.5 7.5h20q8 0 12 -5t4 -11
q0 -14 -5.5 -27.5t-15.5 -24t-23 -16.5t-28 -6z" />
    <glyph glyph-name="ograve" unicode="&#xf2;" horiz-adv-x="558" 
d="M279 -10q-72 0 -120.5 30t-74 82t-27.5 116q-1 15 -1 42t1 42q2 65 27.5 116.5t74 81.5t120.5 30t120.5 -30t74 -81.5t27.5 -116.5q1 -15 1 -42t-1 -42q-2 -64 -27.5 -116t-74 -82t-120.5 -30zM279 48q70 0 114 45t47 130q1 15 1 37t-1 37q-3 86 -47 130.5t-114 44.5
t-114 -44.5t-47 -130.5q-1 -15 -1 -37t1 -37q3 -85 47 -130t114 -45zM294 595q-10 0 -16.5 1.5t-14.5 8.5l-109 89q-5 5 -5 12q0 19 19 19h41q15 0 22 -4t15 -14l69 -83q5 -5 5 -13q0 -16 -16 -16h-10z" />
    <glyph glyph-name="oacute" unicode="&#xf3;" horiz-adv-x="558" 
d="M279 -10q-72 0 -120.5 30t-74 82t-27.5 116q-1 15 -1 42t1 42q2 65 27.5 116.5t74 81.5t120.5 30t120.5 -30t74 -81.5t27.5 -116.5q1 -15 1 -42t-1 -42q-2 -64 -27.5 -116t-74 -82t-120.5 -30zM279 48q70 0 114 45t47 130q1 15 1 37t-1 37q-3 86 -47 130.5t-114 44.5
t-114 -44.5t-47 -130.5q-1 -15 -1 -37t1 -37q3 -85 47 -130t114 -45zM265 595q-16 0 -16 16q0 8 5 13l69 83q8 10 15 14t22 4h41q19 0 19 -19q0 -7 -5 -12l-109 -89q-8 -7 -14.5 -8.5t-16.5 -1.5h-10z" />
    <glyph glyph-name="ocircumflex" unicode="&#xf4;" horiz-adv-x="558" 
d="M279 -10q-72 0 -120.5 30t-74 82t-27.5 116q-1 15 -1 42t1 42q2 65 27.5 116.5t74 81.5t120.5 30t120.5 -30t74 -81.5t27.5 -116.5q1 -15 1 -42t-1 -42q-2 -64 -27.5 -116t-74 -82t-120.5 -30zM279 48q70 0 114 45t47 130q1 15 1 37t-1 37q-3 86 -47 130.5t-114 44.5
t-114 -44.5t-47 -130.5q-1 -15 -1 -37t1 -37q3 -85 47 -130t114 -45zM157 595q-14 0 -14 11q0 8 12 20l87 85q11 11 18 12.5t14 1.5h10q8 0 15 -1.5t17 -12.5l87 -85q12 -12 12 -20q0 -11 -14 -11h-17q-6 0 -13.5 2t-11.5 5l-80 60l-80 -60q-4 -3 -11.5 -5t-13.5 -2h-17z
" />
    <glyph glyph-name="otilde" unicode="&#xf5;" horiz-adv-x="558" 
d="M279 -10q-72 0 -120.5 30t-74 82t-27.5 116q-1 15 -1 42t1 42q2 65 27.5 116.5t74 81.5t120.5 30t120.5 -30t74 -81.5t27.5 -116.5q1 -15 1 -42t-1 -42q-2 -64 -27.5 -116t-74 -82t-120.5 -30zM279 48q70 0 114 45t47 130q1 15 1 37t-1 37q-3 86 -47 130.5t-114 44.5
t-114 -44.5t-47 -130.5q-1 -15 -1 -37t1 -37q3 -85 47 -130t114 -45zM326 590q-23 0 -37.5 8.5t-26.5 17t-26 8.5q-11 0 -16 -7t-9.5 -14.5t-15.5 -7.5h-20q-7 0 -11.5 5t-4.5 11q0 14 5.5 27t15 23.5t22.5 16.5t28 6q24 0 38.5 -8.5t26.5 -17t26 -8.5q12 0 16.5 7.5l9 15
t15.5 7.5h20q8 0 12 -5t4 -11q0 -14 -5.5 -27.5t-15.5 -24t-23 -16.5t-28 -6z" />
    <glyph glyph-name="odieresis" unicode="&#xf6;" horiz-adv-x="558" 
d="M279 -10q-72 0 -120.5 30t-74 82t-27.5 116q-1 15 -1 42t1 42q2 65 27.5 116.5t74 81.5t120.5 30t120.5 -30t74 -81.5t27.5 -116.5q1 -15 1 -42t-1 -42q-2 -64 -27.5 -116t-74 -82t-120.5 -30zM279 48q70 0 114 45t47 130q1 15 1 37t-1 37q-3 86 -47 130.5t-114 44.5
t-114 -44.5t-47 -130.5q-1 -15 -1 -37t1 -37q3 -85 47 -130t114 -45zM336 627q-10 0 -16 6t-6 16v38q0 10 6 16.5t16 6.5h38q10 0 16.5 -6.5t6.5 -16.5v-38q0 -10 -6.5 -16t-16.5 -6h-38zM183 627q-10 0 -16 6t-6 16v38q0 10 6 16.5t16 6.5h38q10 0 16.5 -6.5t6.5 -16.5v-38
q0 -10 -6.5 -16t-16.5 -6h-38z" />
    <glyph glyph-name="divide" unicode="&#xf7;" horiz-adv-x="565" 
d="M95 271q-10 0 -16 6t-6 16v14q0 10 6 16t16 6h375q10 0 16 -6t6 -16v-14q0 -10 -6 -16t-16 -6h-375zM258 79q-10 0 -16 6t-6 16v48q0 10 6 16.5t16 6.5h48q10 0 16.5 -6.5t6.5 -16.5v-48q0 -10 -6.5 -16t-16.5 -6h-48zM258 429q-10 0 -16 6t-6 16v48q0 10 6 16.5t16 6.5
h48q10 0 16.5 -6.5t6.5 -16.5v-48q0 -10 -6.5 -16t-16.5 -6h-48z" />
    <glyph glyph-name="oslash" unicode="&#xf8;" horiz-adv-x="558" 
d="M279 -10q-72 0 -120.5 30t-74 82t-27.5 116q-1 15 -1 42t1 42q2 65 27.5 116.5t74 81.5t120.5 30t120.5 -30t74 -81.5t27.5 -116.5q1 -15 1 -42t-1 -42q-2 -64 -27.5 -116t-74 -82t-120.5 -30zM279 48q70 0 114 45t47 130q1 15 1 37t-1 37q-3 86 -47 130.5t-114 44.5
t-114 -44.5t-47 -130.5q-1 -15 -1 -37t1 -37q3 -85 47 -130t114 -45zM77 -28q-8 0 -14 6t-6 14v5t3 7l382 528q3 4 7.5 9.5t14.5 5.5h17q8 0 14 -6t6 -14q0 -1 -0.5 -4.5t-2.5 -7.5l-382 -528q-3 -4 -7.5 -9.5t-14.5 -5.5h-17z" />
    <glyph glyph-name="ugrave" unicode="&#xf9;" horiz-adv-x="585" 
d="M276 -10q-68 0 -112.5 29.5t-66 80.5t-21.5 114v284q0 10 6 16t16 6h17q10 0 16 -6t6 -16v-279q0 -171 149 -171q71 0 114 45.5t43 125.5v279q0 10 6 16t16 6h17q10 0 16 -6t6 -16v-476q0 -10 -6 -16t-16 -6h-17q-10 0 -16 6t-6 16v47q-27 -35 -64.5 -57t-102.5 -22z
M304 595q-10 0 -16.5 1.5t-14.5 8.5l-109 89q-5 5 -5 12q0 19 19 19h41q15 0 22 -4t15 -14l69 -83q5 -5 5 -13q0 -16 -16 -16h-10z" />
    <glyph glyph-name="uacute" unicode="&#xfa;" horiz-adv-x="585" 
d="M276 -10q-68 0 -112.5 29.5t-66 80.5t-21.5 114v284q0 10 6 16t16 6h17q10 0 16 -6t6 -16v-279q0 -171 149 -171q71 0 114 45.5t43 125.5v279q0 10 6 16t16 6h17q10 0 16 -6t6 -16v-476q0 -10 -6 -16t-16 -6h-17q-10 0 -16 6t-6 16v47q-27 -35 -64.5 -57t-102.5 -22z
M275 595q-16 0 -16 16q0 8 5 13l69 83q8 10 15 14t22 4h41q19 0 19 -19q0 -7 -5 -12l-109 -89q-8 -7 -14.5 -8.5t-16.5 -1.5h-10z" />
    <glyph glyph-name="ucircumflex" unicode="&#xfb;" horiz-adv-x="585" 
d="M276 -10q-68 0 -112.5 29.5t-66 80.5t-21.5 114v284q0 10 6 16t16 6h17q10 0 16 -6t6 -16v-279q0 -171 149 -171q71 0 114 45.5t43 125.5v279q0 10 6 16t16 6h17q10 0 16 -6t6 -16v-476q0 -10 -6 -16t-16 -6h-17q-10 0 -16 6t-6 16v47q-27 -35 -64.5 -57t-102.5 -22z
M167 595q-14 0 -14 11q0 8 12 20l87 85q11 11 18 12.5t14 1.5h10q8 0 15 -1.5t17 -12.5l87 -85q12 -12 12 -20q0 -11 -14 -11h-17q-6 0 -13.5 2t-11.5 5l-80 60l-80 -60q-4 -3 -11.5 -5t-13.5 -2h-17z" />
    <glyph glyph-name="udieresis" unicode="&#xfc;" horiz-adv-x="585" 
d="M276 -10q-68 0 -112.5 29.5t-66 80.5t-21.5 114v284q0 10 6 16t16 6h17q10 0 16 -6t6 -16v-279q0 -171 149 -171q71 0 114 45.5t43 125.5v279q0 10 6 16t16 6h17q10 0 16 -6t6 -16v-476q0 -10 -6 -16t-16 -6h-17q-10 0 -16 6t-6 16v47q-27 -35 -64.5 -57t-102.5 -22z
M346 627q-10 0 -16 6t-6 16v38q0 10 6 16.5t16 6.5h38q10 0 16.5 -6.5t6.5 -16.5v-38q0 -10 -6.5 -16t-16.5 -6h-38zM193 627q-10 0 -16 6t-6 16v38q0 10 6 16.5t16 6.5h38q10 0 16.5 -6.5t6.5 -16.5v-38q0 -10 -6.5 -16t-16.5 -6h-38z" />
    <glyph glyph-name="yacute" unicode="&#xfd;" horiz-adv-x="532" 
d="M169 -190q-8 0 -14 6t-6 14q0 4 1.5 8.5t4.5 11.5l77 180l-191 450q-6 15 -6 20q0 8 6 14t14 6h21q10 0 15.5 -4.5t7.5 -10.5l168 -396l172 396q3 6 8 10.5t15 4.5h20q8 0 14 -6t6 -14q0 -5 -6 -20l-284 -655q-3 -6 -8 -10.5t-15 -4.5h-20zM248 595q-16 0 -16 16
q0 8 5 13l69 83q8 10 15 14t22 4h41q19 0 19 -19q0 -7 -5 -12l-109 -89q-8 -7 -14.5 -8.5t-16.5 -1.5h-10z" />
    <glyph glyph-name="thorn" unicode="&#xfe;" horiz-adv-x="581" 
d="M104 -190q-10 0 -16 6t-6 16v856q0 10 6 16t16 6h17q10 0 16 -6t6 -16v-237q25 34 65.5 56.5t102.5 22.5q59 0 99 -20.5t65 -54.5t37 -76t13 -86q1 -15 1 -33t-1 -33q-1 -44 -13 -86t-37 -76t-65 -54.5t-99 -20.5q-62 0 -102.5 23t-65.5 56v-237q0 -10 -6 -16t-16 -6h-17
zM305 48q59 0 93 26t49 68t17 90q1 28 0 56q-2 48 -17 90t-49 68t-93 26q-57 0 -92 -27t-51.5 -67.5t-18.5 -81.5q-1 -15 -1 -39t1 -39q1 -40 18.5 -79t53 -65t90.5 -26z" />
    <glyph glyph-name="ydieresis" unicode="&#xff;" horiz-adv-x="532" 
d="M169 -190q-8 0 -14 6t-6 14q0 4 1.5 8.5t4.5 11.5l77 180l-191 450q-6 15 -6 20q0 8 6 14t14 6h21q10 0 15.5 -4.5t7.5 -10.5l168 -396l172 396q3 6 8 10.5t15 4.5h20q8 0 14 -6t6 -14q0 -5 -6 -20l-284 -655q-3 -6 -8 -10.5t-15 -4.5h-20zM319 627q-10 0 -16 6t-6 16v38
q0 10 6 16.5t16 6.5h38q10 0 16.5 -6.5t6.5 -16.5v-38q0 -10 -6.5 -16t-16.5 -6h-38zM166 627q-10 0 -16 6t-6 16v38q0 10 6 16.5t16 6.5h38q10 0 16.5 -6.5t6.5 -16.5v-38q0 -10 -6.5 -16t-16.5 -6h-38z" />
    <glyph glyph-name="Amacron" unicode="&#x100;" horiz-adv-x="650" 
d="M44 0q-8 0 -14 6t-6 14q0 5 2 11l253 649q4 10 10.5 15t18.5 5h34q12 0 18.5 -5t10.5 -15l253 -649q2 -6 2 -11q0 -8 -6 -14t-14 -6h-20q-10 0 -15 5.5t-7 9.5l-62 160h-354l-62 -160q-1 -4 -6.5 -9.5t-15.5 -5.5h-20zM172 235h306l-153 394zM225 750q-10 0 -16 6t-6 16
v22q0 10 6 16t16 6h199q10 0 16 -6t6 -16v-22q0 -10 -6 -16t-16 -6h-199z" />
    <glyph glyph-name="amacron" unicode="&#x101;" horiz-adv-x="536" 
d="M221 -10q-48 0 -88.5 20t-65.5 53.5t-25 75.5q0 68 55 109t143 53l158 22v35q0 53 -32.5 83.5t-103.5 30.5q-52 0 -84 -20.5t-44 -53.5q-5 -15 -19 -15h-16q-12 0 -17 6.5t-5 15.5q0 14 10.5 35t32.5 41.5t57 34.5t85 14q59 0 97.5 -16t60 -41.5t30.5 -56.5t9 -61v-333
q0 -10 -6 -16t-16 -6h-17q-10 0 -16 6t-6 16v47q-12 -18 -34 -36t-56.5 -30.5t-86.5 -12.5zM231 48q46 0 84 20t60.5 61.5t22.5 104.5v34l-129 -18q-82 -11 -124 -38t-42 -68q0 -33 19 -54t48.5 -31.5t60.5 -10.5zM165 622q-10 0 -16 6t-6 16v14q0 10 6 16t16 6h199
q10 0 16 -6t6 -16v-14q0 -10 -6 -16t-16 -6h-199z" />
    <glyph glyph-name="Abreve" unicode="&#x102;" horiz-adv-x="650" 
d="M44 0q-8 0 -14 6t-6 14q0 5 2 11l253 649q4 10 10.5 15t18.5 5h34q12 0 18.5 -5t10.5 -15l253 -649q2 -6 2 -11q0 -8 -6 -14t-14 -6h-20q-10 0 -15 5.5t-7 9.5l-62 160h-354l-62 -160q-1 -4 -6.5 -9.5t-15.5 -5.5h-20zM172 235h306l-153 394zM325 740q-45 0 -70 17
t-35 44t-10 55q0 8 5 13.5t14 5.5h15q9 0 14 -5.5t5 -13.5q0 -24 12.5 -45t49.5 -21t49.5 21t12.5 45q0 8 5 13.5t14 5.5h15q9 0 14 -5.5t5 -13.5q0 -28 -10 -55t-34.5 -44t-70.5 -17z" />
    <glyph glyph-name="abreve" unicode="&#x103;" horiz-adv-x="536" 
d="M221 -10q-48 0 -88.5 20t-65.5 53.5t-25 75.5q0 68 55 109t143 53l158 22v35q0 53 -32.5 83.5t-103.5 30.5q-52 0 -84 -20.5t-44 -53.5q-5 -15 -19 -15h-16q-12 0 -17 6.5t-5 15.5q0 14 10.5 35t32.5 41.5t57 34.5t85 14q59 0 97.5 -16t60 -41.5t30.5 -56.5t9 -61v-333
q0 -10 -6 -16t-16 -6h-17q-10 0 -16 6t-6 16v47q-12 -18 -34 -36t-56.5 -30.5t-86.5 -12.5zM231 48q46 0 84 20t60.5 61.5t22.5 104.5v34l-129 -18q-82 -11 -124 -38t-42 -68q0 -33 19 -54t48.5 -31.5t60.5 -10.5zM265 590q-44 0 -68 17t-33 44t-9 55q0 8 5 13.5t14 5.5h15
q9 0 14 -5.5t5 -13.5q0 -24 11.5 -45t45.5 -21q35 0 46 21t11 45q0 8 5 13.5t14 5.5h15q9 0 14 -5.5t5 -13.5q0 -28 -9 -55t-33 -44t-68 -17z" />
    <glyph glyph-name="Aogonek" unicode="&#x104;" horiz-adv-x="650" 
d="M573 -220q-40 0 -70 17t-46 48t-16 73q0 57 29 93.5t78 43.5q-1 2 -1.5 4t-1.5 4l-43 112h-354l-62 -160q-1 -4 -6.5 -9.5t-15.5 -5.5h-20q-8 0 -14 6t-6 14q0 5 2 11l253 649q4 10 10.5 15t18.5 5h34q12 0 18.5 -5t10.5 -15l253 -649q2 -6 2 -11q0 -8 -6 -14t-14 -6h-29
q-33 0 -54.5 -22t-21.5 -60t21.5 -59.5t54.5 -21.5h15q10 0 16 -6t6 -16v-13q0 -10 -6 -16t-16 -6h-19zM172 235h306l-153 394z" />
    <glyph glyph-name="aogonek" unicode="&#x105;" horiz-adv-x="536" 
d="M428 -220q-30 0 -55.5 15t-41 44t-15.5 71q0 32 13 57t32 42.5t37 25.5v1.5v1.5v31q-12 -18 -34 -36t-56.5 -30.5t-86.5 -12.5q-48 0 -88.5 20t-65.5 53.5t-25 75.5q0 68 55 109t143 53l158 22v35q0 53 -32.5 83.5t-103.5 30.5q-37 0 -63 -10t-41 -25.5t-21 -32.5
q-4 -12 -9.5 -16.5t-14.5 -4.5h-14q-9 0 -15.5 6.5t-6.5 15.5q0 14 10.5 35t32.5 41.5t57 34.5t85 14q59 0 97.5 -16t60 -41.5t30.5 -56.5t9 -61v-333q0 -6 -3 -11.5t-11 -9.5l-2 -1q-33 -16 -50 -35.5t-17 -54.5q0 -38 15.5 -55.5t40.5 -17.5h5q10 0 16 -6t6 -16v-13
q0 -10 -6 -16t-16 -6h-9zM231 48q46 0 84 20t60.5 61.5t22.5 104.5v34l-129 -18q-82 -11 -124 -38t-42 -68q0 -33 19 -54t48.5 -31.5t60.5 -10.5z" />
    <glyph glyph-name="Cacute" unicode="&#x106;" horiz-adv-x="651" 
d="M331 -10q-91 0 -148.5 35.5t-85.5 96.5t-31 139q-1 41 -1 88t1 90q3 78 31 139.5t85.5 96.5t148.5 35q71 0 121 -20t81.5 -52.5t47 -70t17.5 -73.5q1 -9 -5.5 -14.5t-15.5 -5.5h-20q-8 0 -14 4.5t-8 16.5q-19 89 -71.5 122t-132.5 33q-91 0 -144.5 -51.5t-57.5 -164.5
q-3 -82 0 -168q4 -113 57.5 -164.5t144.5 -51.5q80 0 132.5 33t71.5 122q2 12 8 16.5t14 4.5h20q9 0 15.5 -5.5t5.5 -14.5q-2 -36 -17.5 -73.5t-47 -70t-81.5 -52.5t-121 -20zM314 750q-16 0 -16 16q0 8 5 13l69 83q8 10 15 14t22 4h46q19 0 19 -19q0 -7 -5 -12l-109 -89
q-8 -7 -14.5 -8.5t-16.5 -1.5h-15z" />
    <glyph glyph-name="cacute" unicode="&#x107;" horiz-adv-x="536" 
d="M278 -10q-70 0 -119 27.5t-74.5 79.5t-27.5 123q-1 15 -1 40t1 40q2 72 27.5 123.5t74.5 79t119 27.5q53 0 91.5 -14.5t63.5 -38t38 -51.5t14 -55q1 -10 -6 -16t-16 -6h-14q-10 0 -14.5 4.5t-9.5 16.5q-21 57 -57.5 79.5t-89.5 22.5q-68 0 -112.5 -41.5t-47.5 -135.5
q-2 -35 0 -70q3 -94 47.5 -135.5t112.5 -41.5q53 0 89.5 22.5t57.5 79.5q5 12 9.5 16.5t14.5 4.5h14q9 0 16 -6t6 -16q-1 -22 -9 -44t-24.5 -43t-40.5 -37t-57.5 -25.5t-75.5 -9.5zM257 595q-16 0 -16 16q0 8 5 13l69 83q8 10 15 14t22 4h41q19 0 19 -19q0 -7 -5 -12
l-109 -89q-8 -7 -14.5 -8.5t-16.5 -1.5h-10z" />
    <glyph glyph-name="Ccircumflex" unicode="&#x108;" horiz-adv-x="651" 
d="M331 -10q-91 0 -148.5 35.5t-85.5 96.5t-31 139q-1 41 -1 88t1 90q3 78 31 139.5t85.5 96.5t148.5 35q71 0 121 -20t81.5 -52.5t47 -70t17.5 -73.5q1 -9 -5.5 -14.5t-15.5 -5.5h-20q-8 0 -14 4.5t-8 16.5q-19 89 -71.5 122t-132.5 33q-91 0 -144.5 -51.5t-57.5 -164.5
q-3 -82 0 -168q4 -113 57.5 -164.5t144.5 -51.5q80 0 132.5 33t71.5 122q2 12 8 16.5t14 4.5h20q9 0 15.5 -5.5t5.5 -14.5q-2 -36 -17.5 -73.5t-47 -70t-81.5 -52.5t-121 -20zM204 750q-14 0 -14 11q0 8 12 20l87 85q11 11 18 12.5t14 1.5h10q8 0 15 -1.5t17 -12.5l87 -85
q12 -12 12 -20q0 -11 -14 -11h-17q-6 0 -13.5 2t-11.5 5l-80 60l-80 -60q-4 -3 -11.5 -5t-13.5 -2h-17z" />
    <glyph glyph-name="ccircumflex" unicode="&#x109;" horiz-adv-x="536" 
d="M278 -10q-70 0 -119 27.5t-74.5 79.5t-27.5 123q-1 15 -1 40t1 40q2 72 27.5 123.5t74.5 79t119 27.5q53 0 91.5 -14.5t63.5 -38t38 -51.5t14 -55q1 -10 -6 -16t-16 -6h-14q-10 0 -14.5 4.5t-9.5 16.5q-21 57 -57.5 79.5t-89.5 22.5q-68 0 -112.5 -41.5t-47.5 -135.5
q-2 -35 0 -70q3 -94 47.5 -135.5t112.5 -41.5q53 0 89.5 22.5t57.5 79.5q5 12 9.5 16.5t14.5 4.5h14q9 0 16 -6t6 -16q-1 -22 -9 -44t-24.5 -43t-40.5 -37t-57.5 -25.5t-75.5 -9.5zM149 595q-14 0 -14 11q0 8 12 20l87 85q11 11 18 12.5t14 1.5h10q8 0 15 -1.5t17 -12.5
l87 -85q12 -12 12 -20q0 -11 -14 -11h-17q-6 0 -13.5 2t-11.5 5l-80 60l-80 -60q-4 -3 -11.5 -5t-13.5 -2h-17z" />
    <glyph glyph-name="Cdotaccent" unicode="&#x10a;" horiz-adv-x="651" 
d="M331 -10q-91 0 -148.5 35.5t-85.5 96.5t-31 139q-1 41 -1 88t1 90q3 78 31 139.5t85.5 96.5t148.5 35q71 0 121 -20t81.5 -52.5t47 -70t17.5 -73.5q1 -9 -5.5 -14.5t-15.5 -5.5h-20q-8 0 -14 4.5t-8 16.5q-19 89 -71.5 122t-132.5 33q-91 0 -144.5 -51.5t-57.5 -164.5
q-3 -82 0 -168q4 -113 57.5 -164.5t144.5 -51.5q80 0 132.5 33t71.5 122q2 12 8 16.5t14 4.5h20q9 0 15.5 -5.5t5.5 -14.5q-2 -36 -17.5 -73.5t-47 -70t-81.5 -52.5t-121 -20zM301 750q-10 0 -16 6t-6 16v48q0 10 6 16.5t16 6.5h48q10 0 16.5 -6.5t6.5 -16.5v-48
q0 -10 -6.5 -16t-16.5 -6h-48z" />
    <glyph glyph-name="cdotaccent" unicode="&#x10b;" horiz-adv-x="536" 
d="M278 -10q-70 0 -119 27.5t-74.5 79.5t-27.5 123q-1 15 -1 40t1 40q2 72 27.5 123.5t74.5 79t119 27.5q53 0 91.5 -14.5t63.5 -38t38 -51.5t14 -55q1 -10 -6 -16t-16 -6h-14q-10 0 -14.5 4.5t-9.5 16.5q-21 57 -57.5 79.5t-89.5 22.5q-68 0 -112.5 -41.5t-47.5 -135.5
q-2 -35 0 -70q3 -94 47.5 -135.5t112.5 -41.5q53 0 89.5 22.5t57.5 79.5q5 12 9.5 16.5t14.5 4.5h14q9 0 16 -6t6 -16q-1 -22 -9 -44t-24.5 -43t-40.5 -37t-57.5 -25.5t-75.5 -9.5zM246 617q-10 0 -16 6t-6 16v48q0 10 6 16.5t16 6.5h48q10 0 16.5 -6.5t6.5 -16.5v-48
q0 -10 -6.5 -16t-16.5 -6h-48z" />
    <glyph glyph-name="Ccaron" unicode="&#x10c;" horiz-adv-x="651" 
d="M331 -10q-91 0 -148.5 35.5t-85.5 96.5t-31 139q-1 41 -1 88t1 90q3 78 31 139.5t85.5 96.5t148.5 35q71 0 121 -20t81.5 -52.5t47 -70t17.5 -73.5q1 -9 -5.5 -14.5t-15.5 -5.5h-20q-8 0 -14 4.5t-8 16.5q-19 89 -71.5 122t-132.5 33q-91 0 -144.5 -51.5t-57.5 -164.5
q-3 -82 0 -168q4 -113 57.5 -164.5t144.5 -51.5q80 0 132.5 33t71.5 122q2 12 8 16.5t14 4.5h20q9 0 15.5 -5.5t5.5 -14.5q-2 -36 -17.5 -73.5t-47 -70t-81.5 -52.5t-121 -20zM321 750q-7 0 -14 2t-18 12l-87 85q-12 12 -12 20q0 11 14 11h17q6 0 13.5 -2t11.5 -5l80 -60
l80 60q4 3 11.5 5t13.5 2h17q14 0 14 -11q0 -8 -12 -20l-87 -85q-10 -10 -17 -12t-15 -2h-10z" />
    <glyph glyph-name="ccaron" unicode="&#x10d;" horiz-adv-x="536" 
d="M278 -10q-70 0 -119 27.5t-74.5 79.5t-27.5 123q-1 15 -1 40t1 40q2 72 27.5 123.5t74.5 79t119 27.5q53 0 91.5 -14.5t63.5 -38t38 -51.5t14 -55q1 -10 -6 -16t-16 -6h-14q-10 0 -14.5 4.5t-9.5 16.5q-21 57 -57.5 79.5t-89.5 22.5q-68 0 -112.5 -41.5t-47.5 -135.5
q-2 -35 0 -70q3 -94 47.5 -135.5t112.5 -41.5q53 0 89.5 22.5t57.5 79.5q5 12 9.5 16.5t14.5 4.5h14q9 0 16 -6t6 -16q-1 -22 -9 -44t-24.5 -43t-40.5 -37t-57.5 -25.5t-75.5 -9.5zM266 595q-7 0 -14 2t-18 12l-87 85q-12 12 -12 20q0 11 14 11h17q6 0 13.5 -2t11.5 -5
l80 -60l80 60q4 3 11.5 5t13.5 2h17q14 0 14 -11q0 -8 -12 -20l-87 -85q-10 -10 -17 -12t-15 -2h-10z" />
    <glyph glyph-name="Dcaron" unicode="&#x10e;" horiz-adv-x="677" 
d="M116 0q-10 0 -16 6t-6 16v655q0 11 6 17t16 6h213q106 0 166 -31t85.5 -91.5t26.5 -147.5q1 -45 1 -79.5t-1 -79.5q-2 -92 -27 -152t-84 -89.5t-162 -29.5h-218zM157 60h172q80 0 126.5 21.5t67 69t21.5 125.5q1 30 1 52.5v44.5t-1 52q-2 110 -51 162.5t-169 52.5h-167
v-580zM334 750q-7 0 -14 2t-18 12l-87 85q-12 12 -12 20q0 11 14 11h17q6 0 13.5 -2t11.5 -5l80 -60l80 60q4 3 11.5 5t13.5 2h17q14 0 14 -11q0 -8 -12 -20l-87 -85q-10 -10 -17 -12t-15 -2h-10z" />
    <glyph glyph-name="dcaron" unicode="&#x10f;" horiz-adv-x="580" 
d="M269 -10q-58 0 -98.5 21t-65.5 56t-36.5 78t-13.5 87q-1 15 -1 28t1 28q2 44 13.5 87t36.5 78t65.5 56t98.5 21q62 0 102.5 -23t65.5 -56v237q0 10 6 16t16 6h17q10 0 16 -6t6 -16v-666q0 -10 -6 -16t-16 -6h-17q-10 0 -16 6t-6 16v47q-25 -34 -65.5 -56.5t-102.5 -22.5z
M275 48q57 0 92 27t52 67.5t18 81.5q1 15 1 39t-1 39q-1 40 -18.5 79t-52.5 65t-91 26q-58 0 -92.5 -26t-49.5 -68t-17 -90q-1 -28 0 -56q2 -48 17 -90t49.5 -68t92.5 -26zM567 550q-8 0 -11.5 6t-2.5 15l17 112q2 12 7.5 19.5t17.5 7.5h45q7 0 11 -5t4 -11q0 -9 -4 -18
l-40 -105q-4 -10 -9.5 -15.5t-16.5 -5.5h-18z" />
    <glyph glyph-name="Dcroat" unicode="&#x110;" horiz-adv-x="683" 
d="M122 0q-10 0 -16 6t-6 16v300h-63q-10 0 -16 6t-6 16v16q0 10 6 16t16 6h63v295q0 11 6 17t16 6h213q106 0 166 -31t85.5 -91.5t26.5 -147.5q1 -45 1 -79.5t-1 -79.5q-2 -92 -27 -152t-84 -89.5t-162 -29.5h-218zM163 60h172q80 0 126 21.5t67 69t22 125.5q1 30 1 52.5
v44.5t-1 52q-2 110 -51 162.5t-169 52.5h-167v-258h150q10 0 16 -6t6 -16v-16q0 -10 -6 -16t-16 -6h-150v-262z" />
    <glyph glyph-name="dcroat" unicode="&#x111;" horiz-adv-x="580" 
d="M270 -10q-66 0 -107.5 23.5t-64.5 61t-32 79.5t-10 78q-1 15 -1 28t1 28q1 36 10 78t32 79.5t64.5 61t107.5 23.5q62 0 102.5 -23t65.5 -56v120h-58q-10 0 -16 6t-6 16v14q0 10 6 16t16 6h58v59q0 10 6 16t16 6h17q10 0 16 -6t6 -16v-59h58q10 0 16 -6t6 -16v-14
q0 -10 -6 -16t-16 -6h-58v-549q0 -10 -6 -16t-16 -6h-17q-10 0 -16 6t-6 16v47q-25 -34 -65.5 -56.5t-102.5 -22.5zM276 48q57 0 92 27t52 67.5t18 81.5q1 15 1 39t-1 39q-1 40 -18.5 79t-52.5 65t-91 26q-58 0 -92.5 -26t-49.5 -68t-17 -90q-1 -28 0 -56q2 -48 17 -90
t49.5 -68t92.5 -26z" />
    <glyph glyph-name="Emacron" unicode="&#x112;" horiz-adv-x="592" 
d="M116 0q-10 0 -16 6t-6 16v655q0 11 6 17t16 6h390q11 0 17 -6t6 -17v-15q0 -10 -6 -16t-17 -6h-349v-255h327q11 0 17 -6t6 -17v-15q0 -10 -6 -16t-17 -6h-327v-265h357q11 0 17 -6t6 -17v-15q0 -10 -6 -16t-17 -6h-398zM196 750q-10 0 -16 6t-6 16v22q0 10 6 16t16 6
h199q10 0 16 -6t6 -16v-22q0 -10 -6 -16t-16 -6h-199z" />
    <glyph glyph-name="emacron" unicode="&#x113;" horiz-adv-x="546" 
d="M274 -10q-97 0 -154 63.5t-65 166.5q-1 15 -1 40t1 40q5 68 32 120t74.5 81t112.5 29q70 0 119 -31t75.5 -89t26.5 -138v-15q0 -10 -6.5 -16t-16.5 -6h-356v-4v-6q2 -45 21 -85.5t54 -66t83 -25.5q43 0 71.5 13t45.5 28.5t22 23.5q9 13 14 15.5t16 2.5h16q9 0 15.5 -5.5
t5.5 -14.5q-1 -14 -15.5 -34.5t-41 -40.5t-64.5 -33t-85 -13zM116 291h318v4q0 50 -19 90t-55 63.5t-86 23.5t-85.5 -23.5t-54 -63.5t-18.5 -90v-4zM174 622q-10 0 -16 6t-6 16v14q0 10 6 16t16 6h199q10 0 16 -6t6 -16v-14q0 -10 -6 -16t-16 -6h-199z" />
    <glyph glyph-name="Ebreve" unicode="&#x114;" horiz-adv-x="592" 
d="M116 0q-10 0 -16 6t-6 16v655q0 11 6 17t16 6h390q11 0 17 -6t6 -17v-15q0 -10 -6 -16t-17 -6h-349v-255h327q11 0 17 -6t6 -17v-15q0 -10 -6 -16t-17 -6h-327v-265h357q11 0 17 -6t6 -17v-15q0 -10 -6 -16t-17 -6h-398zM296 740q-45 0 -70 17t-35 44t-10 55q0 8 5 13.5
t14 5.5h15q9 0 14 -5.5t5 -13.5q0 -24 12.5 -45t49.5 -21t49.5 21t12.5 45q0 8 5 13.5t14 5.5h15q9 0 14 -5.5t5 -13.5q0 -28 -10 -55t-34.5 -44t-70.5 -17z" />
    <glyph glyph-name="ebreve" unicode="&#x115;" horiz-adv-x="546" 
d="M274 -10q-97 0 -154 63.5t-65 166.5q-1 15 -1 40t1 40q5 68 32 120t74.5 81t112.5 29q70 0 119 -31t75.5 -89t26.5 -138v-15q0 -10 -6.5 -16t-16.5 -6h-356v-4v-6q2 -45 21 -85.5t54 -66t83 -25.5q43 0 71.5 13t45.5 28.5t22 23.5q9 13 14 15.5t16 2.5h16q9 0 15.5 -5.5
t5.5 -14.5q-1 -14 -15.5 -34.5t-41 -40.5t-64.5 -33t-85 -13zM116 291h318v4q0 50 -19 90t-55 63.5t-86 23.5t-85.5 -23.5t-54 -63.5t-18.5 -90v-4zM274 590q-44 0 -68 17t-33 44t-9 55q0 8 5 13.5t14 5.5h15q9 0 14 -5.5t5 -13.5q0 -24 11.5 -45t45.5 -21q35 0 46 21t11 45
q0 8 5 13.5t14 5.5h15q9 0 14 -5.5t5 -13.5q0 -28 -9 -55t-33 -44t-68 -17z" />
    <glyph glyph-name="Edotaccent" unicode="&#x116;" horiz-adv-x="592" 
d="M116 0q-10 0 -16 6t-6 16v655q0 11 6 17t16 6h390q11 0 17 -6t6 -17v-15q0 -10 -6 -16t-17 -6h-349v-255h327q11 0 17 -6t6 -17v-15q0 -10 -6 -16t-17 -6h-327v-265h357q11 0 17 -6t6 -17v-15q0 -10 -6 -16t-17 -6h-398zM271 750q-10 0 -16 6t-6 16v48q0 10 6 16.5
t16 6.5h48q10 0 16.5 -6.5t6.5 -16.5v-48q0 -10 -6.5 -16t-16.5 -6h-48z" />
    <glyph glyph-name="edotaccent" unicode="&#x117;" horiz-adv-x="546" 
d="M274 -10q-97 0 -154 63.5t-65 166.5q-1 15 -1 40t1 40q5 68 32 120t74.5 81t112.5 29q70 0 119 -31t75.5 -89t26.5 -138v-15q0 -10 -6.5 -16t-16.5 -6h-356v-4v-6q2 -45 21 -85.5t54 -66t83 -25.5q43 0 71.5 13t45.5 28.5t22 23.5q9 13 14 15.5t16 2.5h16q9 0 15.5 -5.5
t5.5 -14.5q-1 -14 -15.5 -34.5t-41 -40.5t-64.5 -33t-85 -13zM116 291h318v4q0 50 -19 90t-55 63.5t-86 23.5t-85.5 -23.5t-54 -63.5t-18.5 -90v-4zM249 617q-10 0 -16 6t-6 16v48q0 10 6 16.5t16 6.5h48q10 0 16.5 -6.5t6.5 -16.5v-48q0 -10 -6.5 -16t-16.5 -6h-48z" />
    <glyph glyph-name="Eogonek" unicode="&#x118;" horiz-adv-x="592" 
d="M496 -220q-40 0 -70 17t-46 48t-16 73q0 24 5.5 45t15.5 37h-269q-10 0 -16 6t-6 16v655q0 11 6 17t16 6h390q11 0 17 -6t6 -17v-15q0 -10 -6 -16t-17 -6h-349v-255h327q11 0 17 -6t6 -17v-15q0 -10 -6 -16t-17 -6h-327v-265h357q11 0 17 -6t6 -17v-15q0 -10 -6 -16
t-17 -6h-21q-30 -2 -49.5 -23.5t-19.5 -58.5q0 -38 21.5 -59.5t54.5 -21.5h15q10 0 16 -6t6 -16v-13q0 -10 -6 -16t-16 -6h-19z" />
    <glyph glyph-name="eogonek" unicode="&#x119;" horiz-adv-x="547" 
d="M326 -220q-40 0 -70 17t-46 48t-16 73q0 49 19 80q-70 19 -110.5 78t-46.5 144q-1 15 -1 40t1 40q5 68 32 120t74.5 81t112.5 29q70 0 119 -31t75.5 -89t26.5 -138v-15q0 -10 -6.5 -16t-16.5 -6h-356v-10q2 -45 21 -85.5t54 -66t83 -25.5q43 0 71.5 13t45.5 28.5t22 23.5
q9 13 14 15.5t16 2.5h16q9 0 15.5 -5.5t5.5 -14.5q-1 -17 -21 -40.5t-55.5 -45t-84.5 -31.5q-30 -6 -48 -23.5t-18 -52.5q0 -38 21.5 -59.5t54.5 -21.5h15q10 0 16 -6t6 -16v-13q0 -10 -6 -16t-16 -6h-19zM116 291h318v4q0 50 -19 90t-55 63.5t-86 23.5t-85.5 -23.5
t-54 -63.5t-18.5 -90v-4z" />
    <glyph glyph-name="Ecaron" unicode="&#x11a;" horiz-adv-x="592" 
d="M116 0q-10 0 -16 6t-6 16v655q0 11 6 17t16 6h390q11 0 17 -6t6 -17v-15q0 -10 -6 -16t-17 -6h-349v-255h327q11 0 17 -6t6 -17v-15q0 -10 -6 -16t-17 -6h-327v-265h357q11 0 17 -6t6 -17v-15q0 -10 -6 -16t-17 -6h-398zM291 750q-7 0 -14 2t-18 12l-87 85q-12 12 -12 20
q0 11 14 11h17q6 0 13.5 -2t11.5 -5l80 -60l80 60q4 3 11.5 5t13.5 2h17q14 0 14 -11q0 -8 -12 -20l-87 -85q-10 -10 -17 -12t-15 -2h-10z" />
    <glyph glyph-name="ecaron" unicode="&#x11b;" horiz-adv-x="546" 
d="M274 -10q-97 0 -154 63.5t-65 166.5q-1 15 -1 40t1 40q5 68 32 120t74.5 81t112.5 29q70 0 119 -31t75.5 -89t26.5 -138v-15q0 -10 -6.5 -16t-16.5 -6h-356v-4v-6q2 -45 21 -85.5t54 -66t83 -25.5q43 0 71.5 13t45.5 28.5t22 23.5q9 13 14 15.5t16 2.5h16q9 0 15.5 -5.5
t5.5 -14.5q-1 -14 -15.5 -34.5t-41 -40.5t-64.5 -33t-85 -13zM116 291h318v4q0 50 -19 90t-55 63.5t-86 23.5t-85.5 -23.5t-54 -63.5t-18.5 -90v-4zM269 595q-7 0 -14 2t-18 12l-87 85q-12 12 -12 20q0 11 14 11h17q6 0 13.5 -2t11.5 -5l80 -60l80 60q4 3 11.5 5t13.5 2h17
q14 0 14 -11q0 -8 -12 -20l-87 -85q-10 -10 -17 -12t-15 -2h-10z" />
    <glyph glyph-name="Gcircumflex" unicode="&#x11c;" horiz-adv-x="664" 
d="M334 -10q-86 0 -144.5 33.5t-89 93.5t-33.5 138q-1 45 -1 95t1 95q3 79 33.5 138.5t89.5 93t144 33.5q69 0 118 -20.5t80 -51t46 -61.5t16 -52q1 -9 -5 -14.5t-16 -5.5h-22q-9 0 -13 4.5t-8 15.5q-10 31 -33.5 59.5t-63 47t-99.5 18.5q-89 0 -144.5 -48.5t-59.5 -161.5
q-3 -90 0 -180q4 -112 59.5 -161t144.5 -49q59 0 106 22.5t74 69t27 118.5v51h-174q-10 0 -16 6.5t-6 16.5v14q0 11 6 17t16 6h214q11 0 17 -6t6 -17v-88q0 -80 -31.5 -141t-92 -95t-146.5 -34zM217 750q-14 0 -14 11q0 8 12 20l87 85q11 11 18 12.5t14 1.5h10q8 0 15 -1.5
t17 -12.5l87 -85q12 -12 12 -20q0 -11 -14 -11h-17q-6 0 -13.5 2t-11.5 5l-80 60l-80 -60q-4 -3 -11.5 -5t-13.5 -2h-17z" />
    <glyph glyph-name="gcircumflex" unicode="&#x11d;" horiz-adv-x="581" 
d="M275 -220q-64 0 -104.5 17t-63 41.5t-31.5 49t-10 39.5q-1 10 6 16.5t16 6.5h14q8 0 14 -3.5t10 -17.5q6 -16 19.5 -37.5t43 -37.5t81.5 -16q55 0 92 14t56.5 49.5t19.5 98.5v69q-25 -34 -65.5 -56.5t-102.5 -22.5q-58 0 -98.5 21t-65.5 56t-37 78t-13 87q-1 28 0 56
q1 44 13 87t37 78t65.5 56t98.5 21q62 0 102.5 -23t65.5 -56v46q0 10 6 16.5t16 6.5h16q10 0 16.5 -6.5t6.5 -16.5v-487q0 -64 -19 -116t-67.5 -83t-137.5 -31zM276 48q57 0 92 27t51.5 67.5t18.5 81.5q1 15 1 36t-1 36q-2 41 -18.5 81.5t-51.5 67.5t-92 27q-58 0 -92.5 -26
t-49.5 -68t-17 -90q-1 -28 0 -56q2 -48 17 -90t49.5 -68t92.5 -26zM156 595q-14 0 -14 11q0 8 12 20l87 85q11 11 18 12.5t14 1.5h10q8 0 15 -1.5t17 -12.5l87 -85q12 -12 12 -20q0 -11 -14 -11h-17q-6 0 -13.5 2t-11.5 5l-80 60l-80 -60q-4 -3 -11.5 -5t-13.5 -2h-17z" />
    <glyph glyph-name="Gbreve" unicode="&#x11e;" horiz-adv-x="664" 
d="M334 -10q-86 0 -144.5 33.5t-89 93.5t-33.5 138q-1 45 -1 95t1 95q3 79 33.5 138.5t89.5 93t144 33.5q69 0 118 -20.5t80 -51t46 -61.5t16 -52q1 -9 -5 -14.5t-16 -5.5h-22q-9 0 -13 4.5t-8 15.5q-10 31 -33.5 59.5t-63 47t-99.5 18.5q-89 0 -144.5 -48.5t-59.5 -161.5
q-3 -90 0 -180q4 -112 59.5 -161t144.5 -49q59 0 106 22.5t74 69t27 118.5v51h-174q-10 0 -16 6.5t-6 16.5v14q0 11 6 17t16 6h214q11 0 17 -6t6 -17v-88q0 -80 -31.5 -141t-92 -95t-146.5 -34zM339 740q-45 0 -70 17t-35 44t-10 55q0 8 5 13.5t14 5.5h15q9 0 14 -5.5
t5 -13.5q0 -24 12.5 -45t49.5 -21t49.5 21t12.5 45q0 8 5 13.5t14 5.5h15q9 0 14 -5.5t5 -13.5q0 -28 -10 -55t-34.5 -44t-70.5 -17z" />
    <glyph glyph-name="gbreve" unicode="&#x11f;" horiz-adv-x="581" 
d="M275 -220q-64 0 -104.5 17t-63 41.5t-31.5 49t-10 39.5q-1 10 6 16.5t16 6.5h14q8 0 14 -3.5t10 -17.5q6 -16 19.5 -37.5t43 -37.5t81.5 -16q55 0 92 14t56.5 49.5t19.5 98.5v69q-25 -34 -65.5 -56.5t-102.5 -22.5q-58 0 -98.5 21t-65.5 56t-37 78t-13 87q-1 28 0 56
q1 44 13 87t37 78t65.5 56t98.5 21q62 0 102.5 -23t65.5 -56v46q0 10 6 16.5t16 6.5h16q10 0 16.5 -6.5t6.5 -16.5v-487q0 -64 -19 -116t-67.5 -83t-137.5 -31zM276 48q57 0 92 27t51.5 67.5t18.5 81.5q1 15 1 36t-1 36q-2 41 -18.5 81.5t-51.5 67.5t-92 27q-58 0 -92.5 -26
t-49.5 -68t-17 -90q-1 -28 0 -56q2 -48 17 -90t49.5 -68t92.5 -26zM278 590q-44 0 -68 17t-33 44t-9 55q0 8 5 13.5t14 5.5h15q9 0 14 -5.5t5 -13.5q0 -24 11.5 -45t45.5 -21q35 0 46 21t11 45q0 8 5 13.5t14 5.5h15q9 0 14 -5.5t5 -13.5q0 -28 -9 -55t-33 -44t-68 -17z" />
    <glyph glyph-name="Gdotaccent" unicode="&#x120;" horiz-adv-x="664" 
d="M334 -10q-86 0 -144.5 33.5t-89 93.5t-33.5 138q-1 45 -1 95t1 95q3 79 33.5 138.5t89.5 93t144 33.5q69 0 118 -20.5t80 -51t46 -61.5t16 -52q1 -9 -5 -14.5t-16 -5.5h-22q-9 0 -13 4.5t-8 15.5q-10 31 -33.5 59.5t-63 47t-99.5 18.5q-89 0 -144.5 -48.5t-59.5 -161.5
q-3 -90 0 -180q4 -112 59.5 -161t144.5 -49q59 0 106 22.5t74 69t27 118.5v51h-174q-10 0 -16 6.5t-6 16.5v14q0 11 6 17t16 6h214q11 0 17 -6t6 -17v-88q0 -80 -31.5 -141t-92 -95t-146.5 -34zM314 750q-10 0 -16 6t-6 16v48q0 10 6 16.5t16 6.5h48q10 0 16.5 -6.5
t6.5 -16.5v-48q0 -10 -6.5 -16t-16.5 -6h-48z" />
    <glyph glyph-name="gdotaccent" unicode="&#x121;" horiz-adv-x="581" 
d="M275 -220q-64 0 -104.5 17t-63 41.5t-31.5 49t-10 39.5q-1 10 6 16.5t16 6.5h14q8 0 14 -3.5t10 -17.5q6 -16 19.5 -37.5t43 -37.5t81.5 -16q55 0 92 14t56.5 49.5t19.5 98.5v69q-25 -34 -65.5 -56.5t-102.5 -22.5q-58 0 -98.5 21t-65.5 56t-37 78t-13 87q-1 28 0 56
q1 44 13 87t37 78t65.5 56t98.5 21q62 0 102.5 -23t65.5 -56v46q0 10 6 16.5t16 6.5h16q10 0 16.5 -6.5t6.5 -16.5v-487q0 -64 -19 -116t-67.5 -83t-137.5 -31zM276 48q57 0 92 27t51.5 67.5t18.5 81.5q1 15 1 36t-1 36q-2 41 -18.5 81.5t-51.5 67.5t-92 27q-58 0 -92.5 -26
t-49.5 -68t-17 -90q-1 -28 0 -56q2 -48 17 -90t49.5 -68t92.5 -26zM253 617q-10 0 -16 6t-6 16v48q0 10 6 16.5t16 6.5h48q10 0 16.5 -6.5t6.5 -16.5v-48q0 -10 -6.5 -16t-16.5 -6h-48z" />
    <glyph glyph-name="uni0122" unicode="&#x122;" horiz-adv-x="664" 
d="M334 -10q-86 0 -144.5 33.5t-89 93.5t-33.5 138q-1 45 -1 95t1 95q3 79 33.5 138.5t89.5 93t144 33.5q69 0 118 -20.5t80 -51t46 -61.5t16 -52q1 -9 -5 -14.5t-16 -5.5h-22q-9 0 -13 4.5t-8 15.5q-10 31 -33.5 59.5t-63 47t-99.5 18.5q-89 0 -144.5 -48.5t-59.5 -161.5
q-3 -90 0 -180q4 -112 59.5 -161t144.5 -49q59 0 106 22.5t74 69t27 118.5v51h-174q-10 0 -16 6.5t-6 16.5v14q0 11 6 17t16 6h214q11 0 17 -6t6 -17v-88q0 -80 -31.5 -141t-92 -95t-146.5 -34zM295 -210q-8 0 -11.5 6t-2.5 15l17 112q2 12 7.5 19.5t17.5 7.5h45q7 0 11 -5
t4 -11q0 -9 -4 -18l-40 -105q-4 -10 -9.5 -15.5t-16.5 -5.5h-18z" />
    <glyph glyph-name="uni0123" unicode="&#x123;" horiz-adv-x="581" 
d="M275 -220q-64 0 -104.5 17t-63 41.5t-31.5 49t-10 39.5q-1 10 6 16.5t16 6.5h14q8 0 14 -3.5t10 -17.5q6 -16 19.5 -37.5t43 -37.5t81.5 -16q55 0 92 14t56.5 49.5t19.5 98.5v69q-25 -34 -65.5 -56.5t-102.5 -22.5q-58 0 -98.5 21t-65.5 56t-37 78t-13 87q-1 28 0 56
q1 44 13 87t37 78t65.5 56t98.5 21q62 0 102.5 -23t65.5 -56v46q0 10 6 16.5t16 6.5h16q10 0 16.5 -6.5t6.5 -16.5v-487q0 -64 -19 -116t-67.5 -83t-137.5 -31zM276 48q57 0 92 27t51.5 67.5t18.5 81.5q1 15 1 36t-1 36q-2 41 -18.5 81.5t-51.5 67.5t-92 27q-58 0 -92.5 -26
t-49.5 -68t-17 -90q-1 -28 0 -56q2 -48 17 -90t49.5 -68t92.5 -26zM253 595q-7 0 -11 5t-4 11q0 9 4 18l40 105q5 10 10 15.5t16 5.5h18q8 0 12 -6t2 -15l-17 -112q-1 -12 -7 -19.5t-18 -7.5h-45z" />
    <glyph glyph-name="Hcircumflex" unicode="&#x124;" horiz-adv-x="700" 
d="M116 0q-10 0 -16 6t-6 16v655q0 11 6 17t16 6h18q11 0 17 -6t6 -17v-292h386v292q0 11 6 17t16 6h18q11 0 17 -6t6 -17v-655q0 -10 -6 -16t-17 -6h-18q-10 0 -16 6t-6 16v303h-386v-303q0 -10 -6 -16t-17 -6h-18zM228 750q-14 0 -14 11q0 8 12 20l87 85q11 11 18 12.5
t14 1.5h10q8 0 15 -1.5t17 -12.5l87 -85q12 -12 12 -20q0 -11 -14 -11h-17q-6 0 -13.5 2t-11.5 5l-80 60l-80 -60q-4 -3 -11.5 -5t-13.5 -2h-17z" />
    <glyph glyph-name="hcircumflex" unicode="&#x125;" horiz-adv-x="591" 
d="M104 0q-10 0 -16 6t-6 16v666q0 10 6 16t16 6h17q10 0 16 -6t6 -16v-237q27 35 65.5 57t102.5 22q68 0 113.5 -29.5t68 -80t22.5 -114.5v-284q0 -10 -6 -16t-16 -6h-17q-10 0 -16 6t-6 16v279q0 80 -39 125.5t-114 45.5q-71 0 -114.5 -45.5t-43.5 -125.5v-279
q0 -10 -6 -16t-16 -6h-17zM176 750q-14 0 -14 11q0 8 12 20l87 85q11 11 18 12.5t14 1.5h10q8 0 15 -1.5t17 -12.5l87 -85q12 -12 12 -20q0 -11 -14 -11h-17q-6 0 -13.5 2t-11.5 5l-80 60l-80 -60q-4 -3 -11.5 -5t-13.5 -2h-17z" />
    <glyph glyph-name="Hbar" unicode="&#x126;" horiz-adv-x="700" 
d="M43 513q-10 0 -16 6t-6 16v14q0 10 6 16t16 6h624q10 0 16 -6t6 -16v-14q0 -10 -6 -16t-16 -6h-624zM116 0q-10 0 -16 6t-6 16v655q0 11 6 17t16 6h18q11 0 17 -6t6 -17v-292h386v292q0 11 6 17t16 6h18q11 0 17 -6t6 -17v-655q0 -10 -6 -16t-17 -6h-18q-10 0 -16 6
t-6 16v303h-386v-303q0 -10 -6 -16t-17 -6h-18z" />
    <glyph glyph-name="hbar" unicode="&#x127;" horiz-adv-x="591" 
d="M23 571q-10 0 -16 6t-6 16v14q0 10 6 16t16 6h177q10 0 16 -6t6 -16v-14q0 -10 -6 -16t-16 -6h-177zM104 0q-10 0 -16 6t-6 16v666q0 10 6 16t16 6h17q10 0 16 -6t6 -16v-237q27 35 65.5 57t102.5 22q68 0 113.5 -29.5t68 -80t22.5 -114.5v-284q0 -10 -6 -16t-16 -6h-17
q-10 0 -16 6t-6 16v279q0 80 -39 125.5t-114 45.5q-71 0 -114.5 -45.5t-43.5 -125.5v-279q0 -10 -6 -16t-16 -6h-17z" />
    <glyph glyph-name="Itilde" unicode="&#x128;" horiz-adv-x="251" 
d="M116 0q-10 0 -16 6t-6 16v656q0 10 6 16t16 6h19q10 0 16 -6t6 -16v-656q0 -10 -6 -16t-16 -6h-19zM175 745q-23 0 -39.5 8.5t-30 17t-27.5 8.5q-11 0 -16 -7t-9.5 -14.5t-15.5 -7.5h-20q-7 0 -11.5 5t-4.5 11q0 14 5.5 28t16 25.5t24 18t28.5 6.5q24 0 40.5 -8.5t30 -17
t27.5 -8.5q12 0 16.5 7.5l9 15t15.5 7.5h20q8 0 12 -5t4 -11q0 -14 -6 -28t-16.5 -25.5t-24 -18.5t-28.5 -7z" />
    <glyph glyph-name="itilde" unicode="&#x129;" horiz-adv-x="223" 
d="M103 0q-10 0 -16 6t-6 16v476q0 10 6 16t16 6h17q10 0 16 -6t6 -16v-476q0 -10 -6 -16t-16 -6h-17zM159 590q-23 0 -37.5 8.5t-26.5 17t-26 8.5q-11 0 -16 -7t-9.5 -14.5t-15.5 -7.5h-20q-7 0 -11.5 5t-4.5 11q0 14 5.5 27t15 23.5t22.5 16.5t28 6q24 0 38.5 -8.5
t26.5 -17t26 -8.5q12 0 16.5 7.5l9 15t15.5 7.5h20q8 0 12 -5t4 -11q0 -14 -5.5 -27.5t-15.5 -24t-23 -16.5t-28 -6z" />
    <glyph glyph-name="Imacron" unicode="&#x12a;" horiz-adv-x="251" 
d="M116 0q-10 0 -16 6t-6 16v656q0 10 6 16t16 6h19q10 0 16 -6t6 -16v-656q0 -10 -6 -16t-16 -6h-19zM26 750q-10 0 -16 6t-6 16v22q0 10 6 16t16 6h199q10 0 16 -6t6 -16v-22q0 -10 -6 -16t-16 -6h-199z" />
    <glyph glyph-name="imacron" unicode="&#x12b;" horiz-adv-x="223" 
d="M103 0q-10 0 -16 6t-6 16v476q0 10 6 16t16 6h17q10 0 16 -6t6 -16v-476q0 -10 -6 -16t-16 -6h-17zM12 622q-10 0 -16 6t-6 16v14q0 10 6 16t16 6h199q10 0 16 -6t6 -16v-14q0 -10 -6 -16t-16 -6h-199z" />
    <glyph glyph-name="Ibreve" unicode="&#x12c;" horiz-adv-x="251" 
d="M116 0q-10 0 -16 6t-6 16v656q0 10 6 16t16 6h19q10 0 16 -6t6 -16v-656q0 -10 -6 -16t-16 -6h-19zM126 740q-45 0 -70 17t-35 44t-10 55q0 8 5 13.5t14 5.5h15q9 0 14 -5.5t5 -13.5q0 -24 12.5 -45t49.5 -21t49.5 21t12.5 45q0 8 5 13.5t14 5.5h15q9 0 14 -5.5t5 -13.5
q0 -28 -10 -55t-34.5 -44t-70.5 -17z" />
    <glyph glyph-name="ibreve" unicode="&#x12d;" horiz-adv-x="223" 
d="M103 0q-10 0 -16 6t-6 16v476q0 10 6 16t16 6h17q10 0 16 -6t6 -16v-476q0 -10 -6 -16t-16 -6h-17zM112 590q-44 0 -68 17t-33 44t-9 55q0 8 5 13.5t14 5.5h15q9 0 14 -5.5t5 -13.5q0 -24 11.5 -45t45.5 -21q35 0 46 21t11 45q0 8 5 13.5t14 5.5h15q9 0 14 -5.5t5 -13.5
q0 -28 -9 -55t-33 -44t-68 -17z" />
    <glyph glyph-name="Iogonek" unicode="&#x12e;" horiz-adv-x="269" 
d="M134 -220q-40 0 -70 17t-46 48t-16 73q0 58 29.5 94t80.5 43v9v5v5v604q0 10 6 16t16 6h19q10 0 16 -6t6 -16v-656q0 -10 -6 -16t-16 -6h-15q-33 0 -54.5 -22t-21.5 -60t21.5 -59.5t54.5 -21.5h15q10 0 16 -6t6 -16v-13q0 -10 -6 -16t-16 -6h-19z" />
    <glyph glyph-name="iogonek" unicode="&#x12f;" horiz-adv-x="244" 
d="M132 -220q-61 0 -96.5 37t-35.5 101q0 56 27.5 91.5t74.5 44.5v4v3.5v2.5v434q0 10 6 16t16 6h17q10 0 16 -6t6 -16v-476q0 -10 -6 -16t-16 -6h-5q-33 0 -54.5 -22t-21.5 -60t21.5 -59.5t54.5 -21.5h15q10 0 16 -6t6 -16v-13q0 -10 -6 -16t-16 -6h-19zM113 627
q-10 0 -16 6t-6 16v38q0 10 6 16.5t16 6.5h38q10 0 16.5 -6.5t6.5 -16.5v-38q0 -10 -6.5 -16t-16.5 -6h-38z" />
    <glyph glyph-name="Idotaccent" unicode="&#x130;" horiz-adv-x="251" 
d="M116 0q-10 0 -16 6t-6 16v656q0 10 6 16t16 6h19q10 0 16 -6t6 -16v-656q0 -10 -6 -16t-16 -6h-19zM101 750q-10 0 -16 6t-6 16v48q0 10 6 16.5t16 6.5h48q10 0 16.5 -6.5t6.5 -16.5v-48q0 -10 -6.5 -16t-16.5 -6h-48z" />
    <glyph glyph-name="dotlessi" unicode="&#x131;" horiz-adv-x="223" 
d="M103 0q-10 0 -16 6t-6 16v476q0 10 6 16t16 6h17q10 0 16 -6t6 -16v-476q0 -10 -6 -16t-16 -6h-17z" />
    <glyph glyph-name="IJ" unicode="&#x132;" horiz-adv-x="589" 
d="M259 -10q-10 0 -16 6t-6 16v15q0 11 6 17t16 6q88 0 133.5 57.5t45.5 148.5v422q0 10 6 16t16 6h18q11 0 17 -6t6 -17v-422q0 -78 -28 -138t-81.5 -93.5t-132.5 -33.5zM116 0q-10 0 -16 6t-6 16v656q0 10 6 16t16 6h19q10 0 16 -6t6 -16v-656q0 -10 -6 -16t-16 -6h-19z
" />
    <glyph glyph-name="ij" unicode="&#x133;" horiz-adv-x="456" 
d="M103 0q-10 0 -16 6t-6 16v476q0 10 6 16t16 6h17q10 0 16 -6t6 -16v-476q0 -10 -6 -16t-16 -6h-17zM92 627q-10 0 -16 6t-6 16v38q0 10 6 16.5t16 6.5h38q10 0 16.5 -6.5t6.5 -16.5v-38q0 -10 -6.5 -16t-16.5 -6h-38zM219 -190q-10 0 -16 6t-6 16v14q0 10 6 16t16 6h4
q41 0 60 15t24.5 40t5.5 55v520q0 10 6 16t16 6h17q10 0 16 -6t6 -16v-520q0 -47 -12.5 -85t-45 -60.5t-93.5 -22.5h-4zM324 627q-10 0 -16 6t-6 16v38q0 10 6 16.5t16 6.5h38q10 0 16.5 -6.5t6.5 -16.5v-38q0 -10 -6.5 -16t-16.5 -6h-38z" />
    <glyph glyph-name="Jcircumflex" unicode="&#x134;" horiz-adv-x="618" 
d="M288 -10q-49 0 -92 12t-76.5 37t-53 63.5t-21.5 91.5q0 9 5.5 15.5t15.5 6.5h20q10 0 15.5 -6t6.5 -15q4 -52 29.5 -84t65 -46.5t85.5 -14.5q88 0 133.5 57.5t45.5 148.5v384h-369q-10 0 -16 6t-6 16v16q0 10 6 16t16 6h409q11 0 17 -6t6 -17v-422q0 -78 -28 -138
t-81.5 -93.5t-132.5 -33.5zM181 750q-14 0 -14 11q0 8 12 20l87 85q11 11 18 12.5t14 1.5h10q8 0 15 -1.5t17 -12.5l87 -85q12 -12 12 -20q0 -11 -14 -11h-17q-6 0 -13.5 2t-11.5 5l-80 60l-80 -60q-4 -3 -11.5 -5t-13.5 -2h-17z" />
    <glyph glyph-name="jcircumflex" unicode="&#x135;" horiz-adv-x="269" 
d="M32 -190q-10 0 -16 6t-6 16v14q0 10 6 16t16 6h4q41 0 60 15t24.5 40t5.5 55v484h-84q-10 0 -16 6t-6 16v14q0 10 6 16t16 6h123q10 0 16 -6t6 -16v-520q0 -47 -12.5 -85t-45 -60.5t-93.5 -22.5h-4zM-7 595q-14 0 -14 11q0 8 12 20l87 85q11 11 18 12.5t14 1.5h10
q8 0 15 -1.5t17 -12.5l87 -85q12 -12 12 -20q0 -11 -14 -11h-17q-6 0 -13.5 2t-11.5 5l-80 60l-80 -60q-4 -3 -11.5 -5t-13.5 -2h-17z" />
    <glyph glyph-name="uni0136" unicode="&#x136;" horiz-adv-x="575" 
d="M116 0q-10 0 -16 6t-6 16v655q0 11 6 17t16 6h18q11 0 17 -6t6 -17v-260l303 268q4 3 13 9t25 6h16q8 0 14 -6t6 -14t-5 -13l-339 -302l360 -331q6 -6 6 -14t-6 -14t-14 -6h-17q-16 0 -25 6t-13 9l-324 296v-289q0 -10 -6 -16t-17 -6h-18zM253 -210q-8 0 -11.5 6t-2.5 15
l17 112q2 12 7.5 19.5t17.5 7.5h45q7 0 11 -5t4 -11q0 -9 -4 -18l-40 -105q-4 -10 -9.5 -15.5t-16.5 -5.5h-18z" />
    <glyph glyph-name="uni0137" unicode="&#x137;" horiz-adv-x="487" 
d="M104 0q-10 0 -16 6t-6 16v666q0 10 6 16t16 6h17q10 0 16 -6t6 -16v-354l223 169q14 11 20.5 14t21.5 3h19q9 0 14.5 -5.5t5.5 -14.5q0 -4 -2.5 -9.5t-10.5 -10.5l-253 -192l278 -248q13 -12 13 -20q0 -9 -5.5 -14.5t-14.5 -5.5h-16q-15 0 -21.5 2.5t-20.5 14.5l-251 223
v-218q0 -10 -6 -16t-16 -6h-17zM194 -210q-8 0 -11.5 6t-2.5 15l17 112q2 12 7.5 19.5t17.5 7.5h45q7 0 11 -5t4 -11q0 -9 -4 -18l-40 -105q-4 -10 -9.5 -15.5t-16.5 -5.5h-18z" />
    <glyph glyph-name="kgreenlandic" unicode="&#x138;" horiz-adv-x="488" 
d="M103 0q-10 0 -16 6t-6 16v476q0 10 6 16t16 6h17q10 0 16 -6t6 -16v-190l231 195q14 11 20.5 14t21.5 3h16q9 0 14.5 -5.5t5.5 -14.5q0 -4 -2.5 -9.5t-10.5 -10.5l-260 -220l280 -220q13 -10 13 -20q0 -9 -5.5 -14.5t-14.5 -5.5h-18q-15 0 -22 3.5t-20 13.5l-249 195
v-190q0 -10 -6 -16t-16 -6h-17z" />
    <glyph glyph-name="Lacute" unicode="&#x139;" horiz-adv-x="548" 
d="M116 0q-10 0 -16 6t-6 16v656q0 10 6 16t16 6h19q10 0 16 -6t6 -16v-618h345q11 0 17 -6t6 -17v-15q0 -10 -6 -16t-17 -6h-386zM112 750q-16 0 -16 16q0 8 5 13l69 83q8 10 15 14t22 4h46q19 0 19 -19q0 -7 -5 -12l-109 -89q-8 -7 -14.5 -8.5t-16.5 -1.5h-15z" />
    <glyph glyph-name="lacute" unicode="&#x13a;" horiz-adv-x="225" 
d="M104 0q-10 0 -16 6t-6 16v666q0 10 6 16t16 6h17q10 0 16 -6t6 -16v-666q0 -10 -6 -16t-16 -6h-17zM99 751q-16 0 -16 16q0 8 5 13l69 83q8 10 15 14t22 4h41q19 0 19 -19q0 -7 -5 -12l-109 -89q-8 -7 -14.5 -8.5t-16.5 -1.5h-10z" />
    <glyph glyph-name="uni013B" unicode="&#x13b;" horiz-adv-x="548" 
d="M116 0q-10 0 -16 6t-6 16v656q0 10 6 16t16 6h19q10 0 16 -6t6 -16v-618h345q11 0 17 -6t6 -17v-15q0 -10 -6 -16t-17 -6h-386zM256 -210q-8 0 -11.5 6t-2.5 15l17 112q2 12 7.5 19.5t17.5 7.5h45q7 0 11 -5t4 -11q0 -9 -4 -18l-40 -105q-4 -10 -9.5 -15.5t-16.5 -5.5
h-18z" />
    <glyph glyph-name="uni013C" unicode="&#x13c;" horiz-adv-x="225" 
d="M104 0q-10 0 -16 6t-6 16v666q0 10 6 16t16 6h17q10 0 16 -6t6 -16v-666q0 -10 -6 -16t-16 -6h-17zM63 -210q-8 0 -11.5 6t-2.5 15l17 112q2 12 7.5 19.5t17.5 7.5h45q7 0 11 -5t4 -11q0 -9 -4 -18l-40 -105q-4 -10 -9.5 -15.5t-16.5 -5.5h-18z" />
    <glyph glyph-name="Lcaron" unicode="&#x13d;" horiz-adv-x="548" 
d="M116 0q-10 0 -16 6t-6 16v656q0 10 6 16t16 6h19q10 0 16 -6t6 -16v-618h345q11 0 17 -6t6 -17v-15q0 -10 -6 -16t-17 -6h-386zM327 530q-8 0 -11.5 6t-2.5 15l17 112q2 12 7.5 19.5t17.5 7.5h45q7 0 11 -5t4 -11q0 -9 -4 -18l-40 -105q-4 -10 -9.5 -15.5t-16.5 -5.5h-18
z" />
    <glyph glyph-name="lcaron" unicode="&#x13e;" horiz-adv-x="235" 
d="M104 0q-10 0 -16 6t-6 16v666q0 10 6 16t16 6h17q10 0 16 -6t6 -16v-666q0 -10 -6 -16t-16 -6h-17zM212 550q-8 0 -11.5 6t-2.5 15l17 112q2 12 7.5 19.5t17.5 7.5h45q7 0 11 -5t4 -11q0 -9 -4 -18l-40 -105q-4 -10 -9.5 -15.5t-16.5 -5.5h-18z" />
    <glyph glyph-name="Ldot" unicode="&#x13f;" horiz-adv-x="558" 
d="M116 0q-10 0 -16 6t-6 16v656q0 10 6 16t16 6h19q10 0 16 -6t6 -16v-618h345q11 0 17 -6t6 -17v-15q0 -10 -6 -16t-17 -6h-386zM379 313q-10 0 -16 6t-6 16v48q0 10 6 16.5t16 6.5h48q10 0 16.5 -6.5t6.5 -16.5v-48q0 -10 -6.5 -16t-16.5 -6h-48z" />
    <glyph glyph-name="ldot" unicode="&#x140;" horiz-adv-x="286" 
d="M104 0q-10 0 -16 6t-6 16v666q0 10 6 16t16 6h17q10 0 16 -6t6 -16v-666q0 -10 -6 -16t-16 -6h-17zM231 313q-10 0 -16 6t-6 16v48q0 10 6 16.5t16 6.5h48q10 0 16.5 -6.5t6.5 -16.5v-48q0 -10 -6.5 -16t-16.5 -6h-48z" />
    <glyph glyph-name="Lslash" unicode="&#x141;" horiz-adv-x="556" 
d="M124 0q-10 0 -16 6t-6 16v270l-58 -22q-7 -3 -13 -3q-8 0 -13.5 4.5t-5.5 13.5v19q0 11 5 16t17 9l68 26v323q0 10 6 16t16 6h19q10 0 16 -6t6 -16v-298l145 56q8 3 13 3q8 0 13.5 -4.5t5.5 -13.5v-19q0 -11 -5 -15.5t-17 -9.5l-155 -60v-257h346q10 0 16 -6t6 -16v-16
q0 -10 -6 -16t-16 -6h-387z" />
    <glyph glyph-name="lslash" unicode="&#x142;" horiz-adv-x="247" 
d="M116 0q-10 0 -16 6t-6 16v296l-38 -14q-7 -3 -13 -3q-8 0 -13.5 4.5t-5.5 13.5v19q0 11 5 16t17 9l48 18v307q0 10 6 16t16 6h17q10 0 16 -6t6 -16v-284l38 15q8 3 13 3q8 0 13.5 -4.5t5.5 -13.5v-19q0 -11 -5 -15.5t-17 -9.5l-48 -19v-319q0 -10 -6 -16t-16 -6h-17z" />
    <glyph glyph-name="Nacute" unicode="&#x143;" horiz-adv-x="684" 
d="M116 0q-10 0 -16 6t-6 16v655q0 11 6 17t16 6h21q10 0 15 -5t6 -7l369 -564v553q0 11 6 17t16 6h18q11 0 17 -6t6 -17v-654q0 -10 -6 -16.5t-16 -6.5h-22q-10 0 -14.5 5t-6.5 7l-368 562v-552q0 -10 -6 -16t-17 -6h-18zM330 750q-16 0 -16 16q0 8 5 13l69 83q8 10 15 14
t22 4h46q19 0 19 -19q0 -7 -5 -12l-109 -89q-8 -7 -14.5 -8.5t-16.5 -1.5h-15z" />
    <glyph glyph-name="nacute" unicode="&#x144;" horiz-adv-x="590" 
d="M103 0q-10 0 -16 6t-6 16v476q0 10 6 16t16 6h17q10 0 16 -6t6 -16v-47q27 35 65.5 57t102.5 22q68 0 113.5 -29.5t68 -80t22.5 -114.5v-284q0 -10 -6 -16t-16 -6h-17q-10 0 -16 6t-6 16v279q0 80 -39 125.5t-114 45.5q-71 0 -114.5 -45.5t-43.5 -125.5v-279
q0 -10 -6 -16t-16 -6h-17zM283 595q-16 0 -16 16q0 8 5 13l69 83q8 10 15 14t22 4h41q19 0 19 -19q0 -7 -5 -12l-109 -89q-8 -7 -14.5 -8.5t-16.5 -1.5h-10z" />
    <glyph glyph-name="uni0145" unicode="&#x145;" horiz-adv-x="684" 
d="M116 0q-10 0 -16 6t-6 16v655q0 11 6 17t16 6h21q10 0 15 -5t6 -7l369 -564v553q0 11 6 17t16 6h18q11 0 17 -6t6 -17v-654q0 -10 -6 -16.5t-16 -6.5h-22q-10 0 -14.5 5t-6.5 7l-368 562v-552q0 -10 -6 -16t-17 -6h-18zM294 -210q-8 0 -11.5 6t-2.5 15l17 112
q2 12 7.5 19.5t17.5 7.5h45q7 0 11 -5t4 -11q0 -9 -4 -18l-40 -105q-4 -10 -9.5 -15.5t-16.5 -5.5h-18z" />
    <glyph glyph-name="uni0146" unicode="&#x146;" horiz-adv-x="590" 
d="M103 0q-10 0 -16 6t-6 16v476q0 10 6 16t16 6h17q10 0 16 -6t6 -16v-47q27 35 65.5 57t102.5 22q68 0 113.5 -29.5t68 -80t22.5 -114.5v-284q0 -10 -6 -16t-16 -6h-17q-10 0 -16 6t-6 16v279q0 80 -39 125.5t-114 45.5q-71 0 -114.5 -45.5t-43.5 -125.5v-279
q0 -10 -6 -16t-16 -6h-17zM247 -210q-8 0 -11.5 6t-2.5 15l17 112q2 12 7.5 19.5t17.5 7.5h45q7 0 11 -5t4 -11q0 -9 -4 -18l-40 -105q-4 -10 -9.5 -15.5t-16.5 -5.5h-18z" />
    <glyph glyph-name="Ncaron" unicode="&#x147;" horiz-adv-x="684" 
d="M116 0q-10 0 -16 6t-6 16v655q0 11 6 17t16 6h21q10 0 15 -5t6 -7l369 -564v553q0 11 6 17t16 6h18q11 0 17 -6t6 -17v-654q0 -10 -6 -16.5t-16 -6.5h-22q-10 0 -14.5 5t-6.5 7l-368 562v-552q0 -10 -6 -16t-17 -6h-18zM337 750q-7 0 -14 2t-18 12l-87 85q-12 12 -12 20
q0 11 14 11h17q6 0 13.5 -2t11.5 -5l80 -60l80 60q4 3 11.5 5t13.5 2h17q14 0 14 -11q0 -8 -12 -20l-87 -85q-10 -10 -17 -12t-15 -2h-10z" />
    <glyph glyph-name="ncaron" unicode="&#x148;" horiz-adv-x="590" 
d="M103 0q-10 0 -16 6t-6 16v476q0 10 6 16t16 6h17q10 0 16 -6t6 -16v-47q27 35 65.5 57t102.5 22q68 0 113.5 -29.5t68 -80t22.5 -114.5v-284q0 -10 -6 -16t-16 -6h-17q-10 0 -16 6t-6 16v279q0 80 -39 125.5t-114 45.5q-71 0 -114.5 -45.5t-43.5 -125.5v-279
q0 -10 -6 -16t-16 -6h-17zM292 595q-7 0 -14 2t-18 12l-87 85q-12 12 -12 20q0 11 14 11h17q6 0 13.5 -2t11.5 -5l80 -60l80 60q4 3 11.5 5t13.5 2h17q14 0 14 -11q0 -8 -12 -20l-87 -85q-10 -10 -17 -12t-15 -2h-10z" />
    <glyph glyph-name="napostrophe" unicode="&#x149;" horiz-adv-x="590" 
d="M13 582q-8 0 -11.5 6t-2.5 15l17 112q2 12 7.5 19.5t17.5 7.5h45q7 0 11 -5t4 -11q0 -9 -4 -18l-40 -105q-4 -10 -9.5 -15.5t-16.5 -5.5h-18zM103 0q-10 0 -16 6t-6 16v476q0 10 6 16t16 6h17q10 0 16 -6t6 -16v-47q27 35 65.5 57t102.5 22q68 0 113.5 -29.5t68 -80
t22.5 -114.5v-284q0 -10 -6 -16t-16 -6h-17q-10 0 -16 6t-6 16v279q0 80 -39 125.5t-114 45.5q-71 0 -114.5 -45.5t-43.5 -125.5v-279q0 -10 -6 -16t-16 -6h-17z" />
    <glyph glyph-name="Eng" unicode="&#x14a;" horiz-adv-x="684" 
d="M435 -225q-10 0 -16 6t-6 16v16q0 10 6 16t16 6h4q38 0 57 14.5t25 39t6 54.5v65l-370 566v-552q0 -10 -6 -16t-17 -6h-18q-10 0 -16 6t-6 16v655q0 11 6 17t16 6h21q10 0 15 -5t6 -7l369 -564v553q0 11 6 17t16 6h18q11 0 17 -6t6 -17v-734q0 -47 -11.5 -85t-44 -60.5
t-95.5 -22.5h-4z" />
    <glyph glyph-name="eng" unicode="&#x14b;" horiz-adv-x="590" 
d="M359 -225q-10 0 -16 6t-6 16v14q0 10 6 16t16 6h4q41 0 60 15t24.5 40t5.5 55v358q0 80 -39 125.5t-114 45.5q-71 0 -114.5 -45.5t-43.5 -125.5v-279q0 -10 -6 -16t-16 -6h-17q-10 0 -16 6t-6 16v476q0 10 6 16t16 6h17q10 0 16 -6t6 -16v-47q27 35 65.5 57t102.5 22
q68 0 113.5 -29.5t68 -80t22.5 -114.5v-363q0 -47 -12.5 -85t-45 -60.5t-93.5 -22.5h-4z" />
    <glyph glyph-name="Omacron" unicode="&#x14c;" horiz-adv-x="662" 
d="M331 -10q-83 0 -141 29.5t-89 91t-34 155.5q-1 45 -1 84t1 84q3 93 36 154.5t91.5 91.5t136.5 30t136.5 -30t92 -91.5t35.5 -154.5q2 -45 2 -84t-2 -84q-2 -94 -33.5 -155.5t-89.5 -91t-141 -29.5zM331 50q86 0 141.5 52t59.5 169q2 45 2 79t-2 79q-2 78 -28.5 127
t-71 71.5t-101.5 22.5q-56 0 -100.5 -22.5t-71 -71.5t-29.5 -127q-1 -45 -1 -79t1 -79q4 -117 60 -169t141 -52zM231 750q-10 0 -16 6t-6 16v22q0 10 6 16t16 6h199q10 0 16 -6t6 -16v-22q0 -10 -6 -16t-16 -6h-199z" />
    <glyph glyph-name="omacron" unicode="&#x14d;" horiz-adv-x="558" 
d="M279 -10q-72 0 -120.5 30t-74 82t-27.5 116q-1 15 -1 42t1 42q2 65 27.5 116.5t74 81.5t120.5 30t120.5 -30t74 -81.5t27.5 -116.5q1 -15 1 -42t-1 -42q-2 -64 -27.5 -116t-74 -82t-120.5 -30zM279 48q70 0 114 45t47 130q1 15 1 37t-1 37q-3 86 -47 130.5t-114 44.5
t-114 -44.5t-47 -130.5q-1 -15 -1 -37t1 -37q3 -85 47 -130t114 -45zM179 622q-10 0 -16 6t-6 16v14q0 10 6 16t16 6h199q10 0 16 -6t6 -16v-14q0 -10 -6 -16t-16 -6h-199z" />
    <glyph glyph-name="Obreve" unicode="&#x14e;" horiz-adv-x="662" 
d="M331 -10q-83 0 -141 29.5t-89 91t-34 155.5q-1 45 -1 84t1 84q3 93 36 154.5t91.5 91.5t136.5 30t136.5 -30t92 -91.5t35.5 -154.5q2 -45 2 -84t-2 -84q-2 -94 -33.5 -155.5t-89.5 -91t-141 -29.5zM331 50q86 0 141.5 52t59.5 169q2 45 2 79t-2 79q-2 78 -28.5 127
t-71 71.5t-101.5 22.5q-56 0 -100.5 -22.5t-71 -71.5t-29.5 -127q-1 -45 -1 -79t1 -79q4 -117 60 -169t141 -52zM331 740q-45 0 -70 17t-35 44t-10 55q0 8 5 13.5t14 5.5h15q9 0 14 -5.5t5 -13.5q0 -24 12.5 -45t49.5 -21t49.5 21t12.5 45q0 8 5 13.5t14 5.5h15q9 0 14 -5.5
t5 -13.5q0 -28 -10 -55t-34.5 -44t-70.5 -17z" />
    <glyph glyph-name="obreve" unicode="&#x14f;" horiz-adv-x="558" 
d="M279 -10q-72 0 -120.5 30t-74 82t-27.5 116q-1 15 -1 42t1 42q2 65 27.5 116.5t74 81.5t120.5 30t120.5 -30t74 -81.5t27.5 -116.5q1 -15 1 -42t-1 -42q-2 -64 -27.5 -116t-74 -82t-120.5 -30zM279 48q70 0 114 45t47 130q1 15 1 37t-1 37q-3 86 -47 130.5t-114 44.5
t-114 -44.5t-47 -130.5q-1 -15 -1 -37t1 -37q3 -85 47 -130t114 -45zM279 590q-44 0 -68 17t-33 44t-9 55q0 8 5 13.5t14 5.5h15q9 0 14 -5.5t5 -13.5q0 -24 11.5 -45t45.5 -21q35 0 46 21t11 45q0 8 5 13.5t14 5.5h15q9 0 14 -5.5t5 -13.5q0 -28 -9 -55t-33 -44t-68 -17z
" />
    <glyph glyph-name="Ohungarumlaut" unicode="&#x150;" horiz-adv-x="662" 
d="M331 -10q-83 0 -141 29.5t-89 91t-34 155.5q-1 45 -1 84t1 84q3 93 36 154.5t91.5 91.5t136.5 30t136.5 -30t92 -91.5t35.5 -154.5q2 -45 2 -84t-2 -84q-2 -94 -33.5 -155.5t-89.5 -91t-141 -29.5zM331 50q86 0 141.5 52t59.5 169q2 45 2 79t-2 79q-2 78 -28.5 127
t-71 71.5t-101.5 22.5q-56 0 -100.5 -22.5t-71 -71.5t-29.5 -127q-1 -45 -1 -79t1 -79q4 -117 60 -169t141 -52zM392 750q-16 0 -16 16q0 4 2 8t3 7l36 80q9 19 37 19h40q20 0 20 -19q0 -7 -6 -13l-71 -84q-12 -14 -30 -14h-15zM244 750q-16 0 -16 16q0 4 2 8t3 7l36 80
q9 19 37 19h40q20 0 20 -19q0 -7 -6 -13l-71 -84q-12 -14 -30 -14h-15z" />
    <glyph glyph-name="ohungarumlaut" unicode="&#x151;" horiz-adv-x="558" 
d="M279 -10q-72 0 -120.5 30t-74 82t-27.5 116q-1 15 -1 42t1 42q2 65 27.5 116.5t74 81.5t120.5 30t120.5 -30t74 -81.5t27.5 -116.5q1 -15 1 -42t-1 -42q-2 -64 -27.5 -116t-74 -82t-120.5 -30zM279 48q70 0 114 45t47 130q1 15 1 37t-1 37q-3 86 -47 130.5t-114 44.5
t-114 -44.5t-47 -130.5q-1 -15 -1 -37t1 -37q3 -85 47 -130t114 -45zM333 595q-16 0 -16 16q0 4 2 8t3 7l36 80q9 19 37 19h35q20 0 20 -19q0 -7 -6 -13l-71 -84q-12 -14 -30 -14h-10zM190 595q-16 0 -16 16q0 4 2 8t3 7l36 80q9 19 37 19h35q20 0 20 -19q0 -7 -6 -13
l-71 -84q-12 -14 -30 -14h-10z" />
    <glyph glyph-name="OE" unicode="&#x152;" horiz-adv-x="900" 
d="M343 0q-103 0 -162 29.5t-84 89.5t-27 152q-1 45 -1 79.5t1 79.5q2 87 27 147.5t85 91.5t166 31h467q11 0 17 -6t6 -17v-15q0 -10 -6 -16t-17 -6h-309v-255h287q11 0 17 -6t6 -17v-15q0 -10 -6 -16t-17 -6h-287v-265h317q11 0 17 -6t6 -17v-15q0 -10 -6 -16t-17 -6h-480z
M348 60h95v580h-90q-120 0 -169 -52.5t-51 -162.5q0 -30 -0.5 -52t0 -44.5t0.5 -52.5q2 -78 22.5 -125.5t67 -69t125.5 -21.5z" />
    <glyph glyph-name="oe" unicode="&#x153;" horiz-adv-x="931" 
d="M280 -10q-72 0 -120.5 30t-74 82t-27.5 116q-1 15 -1 42t1 42q2 65 27.5 116.5t74 81.5t120.5 30t120.5 -30.5t73.5 -81.5q27 52 74.5 82t113.5 30q70 0 119 -31t75.5 -89t26.5 -138v-15q0 -10 -6.5 -16t-16.5 -6h-356v-10q2 -45 21 -85.5t54 -66t83 -25.5q40 0 68 13
t44.5 28.5t21.5 23.5q9 13 14 15.5t16 2.5h16q9 0 15.5 -5.5t5.5 -14.5q-1 -14 -15.5 -34.5t-40.5 -40.5t-63 -33t-82 -13q-65 0 -113 29.5t-75 81.5q-25 -51 -73.5 -81t-120.5 -30zM280 48q70 0 114 45t47 130q1 15 1 37t-1 37q-3 86 -47 130.5t-114 44.5t-114 -44.5
t-47 -130.5q-1 -15 -1 -37t1 -37q3 -85 47 -130t114 -45zM504 291h318v4q0 50 -19 90t-55 63.5t-86 23.5t-85.5 -23.5t-54 -63.5t-18.5 -90v-4z" />
    <glyph glyph-name="Racute" unicode="&#x154;" horiz-adv-x="640" 
d="M116 0q-10 0 -16 6t-6 16v655q0 11 6 17t16 6h233q105 0 167.5 -50t62.5 -152q0 -80 -40 -128t-111 -65l161 -274q3 -6 3 -11q0 -8 -6 -14t-14 -6h-12q-16 0 -24 8.5t-14 18.5l-159 269h-206v-274q0 -10 -6 -16t-17 -6h-18zM157 356h187q87 0 129.5 35.5t42.5 106.5
t-42.5 106.5t-129.5 35.5h-187v-284zM287 750q-16 0 -16 16q0 8 5 13l69 83q8 10 15 14t22 4h46q19 0 19 -19q0 -7 -5 -12l-109 -89q-8 -7 -14.5 -8.5t-16.5 -1.5h-15z" />
    <glyph glyph-name="racute" unicode="&#x155;" horiz-adv-x="348" 
d="M103 0q-10 0 -16 6t-6 16v475q0 10 6 16.5t16 6.5h16q10 0 16.5 -6.5t6.5 -16.5v-46q18 35 52 52t84 17h37q10 0 16 -6t6 -16v-14q0 -10 -6 -16t-16 -6h-43q-60 0 -95 -35t-35 -95v-310q0 -10 -6.5 -16t-16.5 -6h-16zM177 595q-16 0 -16 16q0 8 5 13l69 83q8 10 15 14
t22 4h41q19 0 19 -19q0 -7 -5 -12l-109 -89q-8 -7 -14.5 -8.5t-16.5 -1.5h-10z" />
    <glyph glyph-name="uni0156" unicode="&#x156;" horiz-adv-x="640" 
d="M116 0q-10 0 -16 6t-6 16v655q0 11 6 17t16 6h233q105 0 167.5 -50t62.5 -152q0 -80 -40 -128t-111 -65l161 -274q3 -6 3 -11q0 -8 -6 -14t-14 -6h-12q-16 0 -24 8.5t-14 18.5l-159 269h-206v-274q0 -10 -6 -16t-17 -6h-18zM157 356h187q87 0 129.5 35.5t42.5 106.5
t-42.5 106.5t-129.5 35.5h-187v-284zM273 -210q-8 0 -11.5 6t-2.5 15l17 112q2 12 7.5 19.5t17.5 7.5h45q7 0 11 -5t4 -11q0 -9 -4 -18l-40 -105q-4 -10 -9.5 -15.5t-16.5 -5.5h-18z" />
    <glyph glyph-name="uni0157" unicode="&#x157;" horiz-adv-x="348" 
d="M103 0q-10 0 -16 6t-6 16v475q0 10 6 16.5t16 6.5h16q10 0 16.5 -6.5t6.5 -16.5v-46q18 35 52 52t84 17h37q10 0 16 -6t6 -16v-14q0 -10 -6 -16t-16 -6h-43q-60 0 -95 -35t-35 -95v-310q0 -10 -6.5 -16t-16.5 -6h-16zM62 -210q-8 0 -11.5 6t-2.5 15l17 112q2 12 7.5 19.5
t17.5 7.5h45q7 0 11 -5t4 -11q0 -9 -4 -18l-40 -105q-4 -10 -9.5 -15.5t-16.5 -5.5h-18z" />
    <glyph glyph-name="Rcaron" unicode="&#x158;" horiz-adv-x="640" 
d="M116 0q-10 0 -16 6t-6 16v655q0 11 6 17t16 6h233q105 0 167.5 -50t62.5 -152q0 -80 -40 -128t-111 -65l161 -274q3 -6 3 -11q0 -8 -6 -14t-14 -6h-12q-16 0 -24 8.5t-14 18.5l-159 269h-206v-274q0 -10 -6 -16t-17 -6h-18zM157 356h187q87 0 129.5 35.5t42.5 106.5
t-42.5 106.5t-129.5 35.5h-187v-284zM294 750q-7 0 -14 2t-18 12l-87 85q-12 12 -12 20q0 11 14 11h17q6 0 13.5 -2t11.5 -5l80 -60l80 60q4 3 11.5 5t13.5 2h17q14 0 14 -11q0 -8 -12 -20l-87 -85q-10 -10 -17 -12t-15 -2h-10z" />
    <glyph glyph-name="rcaron" unicode="&#x159;" horiz-adv-x="348" 
d="M103 0q-10 0 -16 6t-6 16v475q0 10 6 16.5t16 6.5h16q10 0 16.5 -6.5t6.5 -16.5v-46q18 35 52 52t84 17h37q10 0 16 -6t6 -16v-14q0 -10 -6 -16t-16 -6h-43q-60 0 -95 -35t-35 -95v-310q0 -10 -6.5 -16t-16.5 -6h-16zM186 595q-7 0 -14 2t-18 12l-87 85q-12 12 -12 20
q0 11 14 11h17q6 0 13.5 -2t11.5 -5l80 -60l80 60q4 3 11.5 5t13.5 2h17q14 0 14 -11q0 -8 -12 -20l-87 -85q-10 -10 -17 -12t-15 -2h-10z" />
    <glyph glyph-name="Sacute" unicode="&#x15a;" horiz-adv-x="605" 
d="M304 -10q-81 0 -137.5 26t-86.5 67t-32 87q0 8 6 14t15 6h20q10 0 15.5 -6t6.5 -14q4 -28 25 -55.5t62 -46t106 -18.5q98 0 143 35.5t45 95.5q0 40 -23.5 64.5t-71.5 44t-123 43.5q-71 23 -117 47.5t-67.5 59.5t-21.5 90q0 51 27 91.5t78.5 64.5t125.5 24q59 0 103 -16
t73 -42.5t44 -57t16 -59.5q0 -7 -5 -13.5t-16 -6.5h-20q-5 0 -12.5 4t-9.5 16q-6 50 -52.5 82.5t-120.5 32.5t-121 -29t-47 -91q0 -40 21 -65.5t66 -45t116 -42.5q75 -24 124 -48t73 -58.5t24 -89.5q0 -61 -30.5 -103.5t-86.5 -65t-134 -22.5zM291 750q-16 0 -16 16
q0 8 5 13l69 83q8 10 15 14t22 4h46q19 0 19 -19q0 -7 -5 -12l-109 -89q-8 -7 -14.5 -8.5t-16.5 -1.5h-15z" />
    <glyph glyph-name="sacute" unicode="&#x15b;" horiz-adv-x="492" 
d="M246 -10q-52 0 -89.5 14t-61.5 33.5t-35.5 38.5t-12.5 29q-1 11 7 16.5t15 5.5h15q6 0 10.5 -2t11.5 -11q13 -17 30 -32.5t43.5 -24.5t66.5 -9q60 0 99 23t39 68q0 28 -15.5 45t-52.5 30t-100 27q-63 15 -96.5 36t-45.5 48.5t-12 59.5q0 35 20 68.5t59.5 55t99.5 21.5
q49 0 83.5 -13t56.5 -31.5t32.5 -36.5t11.5 -29q1 -10 -6 -16t-16 -6h-15q-8 0 -13 3.5t-9 9.5q-10 16 -24 30t-37.5 22.5t-63.5 8.5q-60 0 -89 -24.5t-29 -62.5q0 -22 12 -38.5t45 -30t96 -28.5q64 -14 101 -34.5t52.5 -48.5t15.5 -66q0 -40 -22.5 -74t-67 -54.5
t-109.5 -20.5zM229 595q-16 0 -16 16q0 8 5 13l69 83q8 10 15 14t22 4h41q19 0 19 -19q0 -7 -5 -12l-109 -89q-8 -7 -14.5 -8.5t-16.5 -1.5h-10z" />
    <glyph glyph-name="Scircumflex" unicode="&#x15c;" horiz-adv-x="605" 
d="M304 -10q-81 0 -137.5 26t-86.5 67t-32 87q0 8 6 14t15 6h20q10 0 15.5 -6t6.5 -14q4 -28 25 -55.5t62 -46t106 -18.5q98 0 143 35.5t45 95.5q0 40 -23.5 64.5t-71.5 44t-123 43.5q-71 23 -117 47.5t-67.5 59.5t-21.5 90q0 51 27 91.5t78.5 64.5t125.5 24q59 0 103 -16
t73 -42.5t44 -57t16 -59.5q0 -7 -5 -13.5t-16 -6.5h-20q-5 0 -12.5 4t-9.5 16q-6 50 -52.5 82.5t-120.5 32.5t-121 -29t-47 -91q0 -40 21 -65.5t66 -45t116 -42.5q75 -24 124 -48t73 -58.5t24 -89.5q0 -61 -30.5 -103.5t-86.5 -65t-134 -22.5zM181 750q-14 0 -14 11
q0 8 12 20l87 85q11 11 18 12.5t14 1.5h10q8 0 15 -1.5t17 -12.5l87 -85q12 -12 12 -20q0 -11 -14 -11h-17q-6 0 -13.5 2t-11.5 5l-80 60l-80 -60q-4 -3 -11.5 -5t-13.5 -2h-17z" />
    <glyph glyph-name="scircumflex" unicode="&#x15d;" horiz-adv-x="492" 
d="M246 -10q-52 0 -89.5 14t-61.5 33.5t-35.5 38.5t-12.5 29q-1 11 7 16.5t15 5.5h15q6 0 10.5 -2t11.5 -11q13 -17 30 -32.5t43.5 -24.5t66.5 -9q60 0 99 23t39 68q0 28 -15.5 45t-52.5 30t-100 27q-63 15 -96.5 36t-45.5 48.5t-12 59.5q0 35 20 68.5t59.5 55t99.5 21.5
q49 0 83.5 -13t56.5 -31.5t32.5 -36.5t11.5 -29q1 -10 -6 -16t-16 -6h-15q-8 0 -13 3.5t-9 9.5q-10 16 -24 30t-37.5 22.5t-63.5 8.5q-60 0 -89 -24.5t-29 -62.5q0 -22 12 -38.5t45 -30t96 -28.5q64 -14 101 -34.5t52.5 -48.5t15.5 -66q0 -40 -22.5 -74t-67 -54.5
t-109.5 -20.5zM121 595q-14 0 -14 11q0 8 12 20l87 85q11 11 18 12.5t14 1.5h10q8 0 15 -1.5t17 -12.5l87 -85q12 -12 12 -20q0 -11 -14 -11h-17q-6 0 -13.5 2t-11.5 5l-80 60l-80 -60q-4 -3 -11.5 -5t-13.5 -2h-17z" />
    <glyph glyph-name="Scedilla" unicode="&#x15e;" horiz-adv-x="605" 
d="M301 -220q-28 1 -49.5 10.5t-31 21.5t-1.5 19l14 13q9 8 16 3t18.5 -13t33.5 -8q17 0 30 10.5t13 29.5q0 18 -13 28t-30 10q-16 0 -26.5 -4.5t-18 -6t-15.5 6.5l-16 17q-5 6 -1.5 14.5t6.5 15.5l20 47q-64 8 -108.5 34.5t-68.5 64t-25 77.5q0 8 6 14t15 6h20
q10 0 15.5 -6t6.5 -14q4 -28 25 -55.5t62 -46t106 -18.5q98 0 143 35.5t45 95.5q0 40 -23.5 64.5t-71.5 44t-123 43.5q-71 23 -117 47.5t-67.5 59.5t-21.5 90q0 51 27 91.5t78.5 64.5t125.5 24q59 0 103 -16t73 -42.5t44 -57t16 -59.5q0 -7 -5 -13.5t-16 -6.5h-20
q-5 0 -12.5 4t-9.5 16q-6 50 -52.5 82.5t-120.5 32.5t-121 -29t-47 -91q0 -40 21 -65.5t66 -45t116 -42.5q75 -24 124 -48t73 -58.5t24 -89.5q0 -61 -30.5 -103.5t-86.5 -65t-134 -22.5l-23 -48q6 4 16.5 6t21.5 2q33 0 54.5 -23t21.5 -59t-23.5 -62.5t-70.5 -25.5z" />
    <glyph glyph-name="scedilla" unicode="&#x15f;" horiz-adv-x="492" 
d="M260 -220q-28 1 -49.5 10.5t-31 21.5t-1.5 19l14 13q9 8 16 3t18.5 -13t33.5 -8q17 0 30 10.5t13 29.5q0 18 -13 28t-30 10q-16 0 -26.5 -4.5t-18 -6t-15.5 6.5l-16 17q-5 6 -1.5 14.5t6.5 15.5l19 46q-57 7 -92.5 29t-51.5 46t-17 37q-1 11 7 16.5t15 5.5h15
q6 0 10.5 -2t11.5 -11q13 -17 30 -32.5t43.5 -24.5t66.5 -9q60 0 99 23t39 68q0 28 -15.5 45t-52.5 30t-100 27q-63 15 -96.5 36t-45.5 48.5t-12 59.5q0 35 20 68.5t59.5 55t99.5 21.5q49 0 83.5 -13t56.5 -31.5t32.5 -36.5t11.5 -29q1 -10 -6 -16t-16 -6h-15q-8 0 -13 3.5
t-9 9.5q-10 16 -24 30t-37.5 22.5t-63.5 8.5q-60 0 -89 -24.5t-29 -62.5q0 -22 12 -38.5t45 -30t96 -28.5q64 -14 101 -34.5t52.5 -48.5t15.5 -66q0 -58 -46.5 -101t-135.5 -48l-23 -48q6 4 16.5 6t21.5 2q33 0 54.5 -23t21.5 -59t-23.5 -62.5t-70.5 -25.5z" />
    <glyph glyph-name="Scaron" unicode="&#x160;" horiz-adv-x="605" 
d="M304 -10q-81 0 -137.5 26t-86.5 67t-32 87q0 8 6 14t15 6h20q10 0 15.5 -6t6.5 -14q4 -28 25 -55.5t62 -46t106 -18.5q98 0 143 35.5t45 95.5q0 40 -23.5 64.5t-71.5 44t-123 43.5q-71 23 -117 47.5t-67.5 59.5t-21.5 90q0 51 27 91.5t78.5 64.5t125.5 24q59 0 103 -16
t73 -42.5t44 -57t16 -59.5q0 -7 -5 -13.5t-16 -6.5h-20q-5 0 -12.5 4t-9.5 16q-6 50 -52.5 82.5t-120.5 32.5t-121 -29t-47 -91q0 -40 21 -65.5t66 -45t116 -42.5q75 -24 124 -48t73 -58.5t24 -89.5q0 -61 -30.5 -103.5t-86.5 -65t-134 -22.5zM298 750q-7 0 -14 2t-18 12
l-87 85q-12 12 -12 20q0 11 14 11h17q6 0 13.5 -2t11.5 -5l80 -60l80 60q4 3 11.5 5t13.5 2h17q14 0 14 -11q0 -8 -12 -20l-87 -85q-10 -10 -17 -12t-15 -2h-10z" />
    <glyph glyph-name="scaron" unicode="&#x161;" horiz-adv-x="492" 
d="M246 -10q-52 0 -89.5 14t-61.5 33.5t-35.5 38.5t-12.5 29q-1 11 7 16.5t15 5.5h15q6 0 10.5 -2t11.5 -11q13 -17 30 -32.5t43.5 -24.5t66.5 -9q60 0 99 23t39 68q0 28 -15.5 45t-52.5 30t-100 27q-63 15 -96.5 36t-45.5 48.5t-12 59.5q0 35 20 68.5t59.5 55t99.5 21.5
q49 0 83.5 -13t56.5 -31.5t32.5 -36.5t11.5 -29q1 -10 -6 -16t-16 -6h-15q-8 0 -13 3.5t-9 9.5q-10 16 -24 30t-37.5 22.5t-63.5 8.5q-60 0 -89 -24.5t-29 -62.5q0 -22 12 -38.5t45 -30t96 -28.5q64 -14 101 -34.5t52.5 -48.5t15.5 -66q0 -40 -22.5 -74t-67 -54.5
t-109.5 -20.5zM238 595q-7 0 -14 2t-18 12l-87 85q-12 12 -12 20q0 11 14 11h17q6 0 13.5 -2t11.5 -5l80 -60l80 60q4 3 11.5 5t13.5 2h17q14 0 14 -11q0 -8 -12 -20l-87 -85q-10 -10 -17 -12t-15 -2h-10z" />
    <glyph glyph-name="Tcaron" unicode="&#x164;" horiz-adv-x="557" 
d="M269 0q-10 0 -16 6t-6 16v618h-198q-10 0 -16 6t-6 16v15q0 11 6 17t16 6h458q11 0 17 -6t6 -17v-15q0 -10 -6 -16t-17 -6h-197v-618q0 -10 -6 -16t-17 -6h-18zM274 750q-7 0 -14 2t-18 12l-87 85q-12 12 -12 20q0 11 14 11h17q6 0 13.5 -2t11.5 -5l80 -60l80 60
q4 3 11.5 5t13.5 2h17q14 0 14 -11q0 -8 -12 -20l-87 -85q-10 -10 -17 -12t-15 -2h-10z" />
    <glyph glyph-name="tcaron" unicode="&#x165;" horiz-adv-x="359" 
d="M256 0q-52 0 -82 22t-42 60t-12 85v295h-78q-10 0 -16 6t-6 16v14q0 10 6 16t16 6h78v168q0 10 6 16t16 6h17q10 0 16 -6t6 -16v-168h124q10 0 16 -6t6 -16v-14q0 -10 -6 -16t-16 -6h-124v-291q0 -53 17.5 -83t62.5 -30h54q10 0 16 -6t6 -16v-14q0 -10 -6 -16t-16 -6h-59
zM277 610q-8 0 -11.5 6t-2.5 15l17 112q2 12 7.5 19.5t17.5 7.5h45q7 0 11 -5t4 -11q0 -9 -4 -18l-40 -105q-4 -10 -9.5 -15.5t-16.5 -5.5h-18z" />
    <glyph glyph-name="Tbar" unicode="&#x166;" horiz-adv-x="567" 
d="M274 0q-10 0 -16 6t-6 16v328h-118q-10 0 -16 6t-6 16v15q0 11 6 17t16 6h118v230h-198q-10 0 -16 6t-6 16v15q0 11 6 17t16 6h458q11 0 17 -6t6 -17v-15q0 -10 -6 -16t-17 -6h-197v-230h117q11 0 17 -6t6 -17v-15q0 -10 -6 -16t-17 -6h-117v-328q0 -10 -6 -16t-17 -6
h-18z" />
    <glyph glyph-name="tbar" unicode="&#x167;" horiz-adv-x="367" 
d="M261 0q-52 0 -82 22t-42 60t-12 85v137h-78q-10 0 -16 6t-6 16v14q0 10 6 16t16 6h78v100h-78q-10 0 -16 6t-6 16v14q0 10 6 16t16 6h78v168q0 10 6 16t16 6h17q10 0 16 -6t6 -16v-168h124q10 0 16 -6t6 -16v-14q0 -10 -6 -16t-16 -6h-124v-100h124q10 0 16 -6t6 -16v-14
q0 -10 -6 -16t-16 -6h-124v-133q0 -53 17.5 -83t62.5 -30h54q10 0 16 -6t6 -16v-14q0 -10 -6 -16t-16 -6h-59z" />
    <glyph glyph-name="Utilde" unicode="&#x168;" horiz-adv-x="691" 
d="M346 -10q-81 0 -138.5 30t-88.5 92t-31 159v406q0 11 6 17t16 6h18q11 0 17 -6t6 -17v-409q0 -112 52.5 -165t142.5 -53q89 0 141.5 53t52.5 165v409q0 11 6.5 17t16.5 6h18q10 0 16 -6t6 -17v-406q0 -97 -30.5 -159t-87.5 -92t-139 -30zM395 745q-23 0 -39.5 8.5t-30 17
t-27.5 8.5q-11 0 -16 -7t-9.5 -14.5t-15.5 -7.5h-20q-7 0 -11.5 5t-4.5 11q0 14 5.5 28t16 25.5t24 18t28.5 6.5q24 0 40.5 -8.5t30 -17t27.5 -8.5q12 0 16.5 7.5l9 15t15.5 7.5h20q8 0 12 -5t4 -11q0 -14 -6 -28t-16.5 -25.5t-24 -18.5t-28.5 -7z" />
    <glyph glyph-name="utilde" unicode="&#x169;" horiz-adv-x="585" 
d="M276 -10q-68 0 -112.5 29.5t-66 80.5t-21.5 114v284q0 10 6 16t16 6h17q10 0 16 -6t6 -16v-279q0 -171 149 -171q71 0 114 45.5t43 125.5v279q0 10 6 16t16 6h17q10 0 16 -6t6 -16v-476q0 -10 -6 -16t-16 -6h-17q-10 0 -16 6t-6 16v47q-27 -35 -64.5 -57t-102.5 -22z
M336 590q-23 0 -37.5 8.5t-26.5 17t-26 8.5q-11 0 -16 -7t-9.5 -14.5t-15.5 -7.5h-20q-7 0 -11.5 5t-4.5 11q0 14 5.5 27t15 23.5t22.5 16.5t28 6q24 0 38.5 -8.5t26.5 -17t26 -8.5q12 0 16.5 7.5l9 15t15.5 7.5h20q8 0 12 -5t4 -11q0 -14 -5.5 -27.5t-15.5 -24t-23 -16.5
t-28 -6z" />
    <glyph glyph-name="Umacron" unicode="&#x16a;" horiz-adv-x="691" 
d="M346 -10q-81 0 -138.5 30t-88.5 92t-31 159v406q0 11 6 17t16 6h18q11 0 17 -6t6 -17v-409q0 -112 52.5 -165t142.5 -53q89 0 141.5 53t52.5 165v409q0 11 6.5 17t16.5 6h18q10 0 16 -6t6 -17v-406q0 -97 -30.5 -159t-87.5 -92t-139 -30zM246 750q-10 0 -16 6t-6 16v22
q0 10 6 16t16 6h199q10 0 16 -6t6 -16v-22q0 -10 -6 -16t-16 -6h-199z" />
    <glyph glyph-name="umacron" unicode="&#x16b;" horiz-adv-x="585" 
d="M276 -10q-68 0 -112.5 29.5t-66 80.5t-21.5 114v284q0 10 6 16t16 6h17q10 0 16 -6t6 -16v-279q0 -171 149 -171q71 0 114 45.5t43 125.5v279q0 10 6 16t16 6h17q10 0 16 -6t6 -16v-476q0 -10 -6 -16t-16 -6h-17q-10 0 -16 6t-6 16v47q-27 -35 -64.5 -57t-102.5 -22z
M189 622q-10 0 -16 6t-6 16v14q0 10 6 16t16 6h199q10 0 16 -6t6 -16v-14q0 -10 -6 -16t-16 -6h-199z" />
    <glyph glyph-name="Ubreve" unicode="&#x16c;" horiz-adv-x="691" 
d="M346 -10q-81 0 -138.5 30t-88.5 92t-31 159v406q0 11 6 17t16 6h18q11 0 17 -6t6 -17v-409q0 -112 52.5 -165t142.5 -53q89 0 141.5 53t52.5 165v409q0 11 6.5 17t16.5 6h18q10 0 16 -6t6 -17v-406q0 -97 -30.5 -159t-87.5 -92t-139 -30zM346 740q-45 0 -70 17t-35 44
t-10 55q0 8 5 13.5t14 5.5h15q9 0 14 -5.5t5 -13.5q0 -24 12.5 -45t49.5 -21t49.5 21t12.5 45q0 8 5 13.5t14 5.5h15q9 0 14 -5.5t5 -13.5q0 -28 -10 -55t-34.5 -44t-70.5 -17z" />
    <glyph glyph-name="ubreve" unicode="&#x16d;" horiz-adv-x="585" 
d="M276 -10q-68 0 -112.5 29.5t-66 80.5t-21.5 114v284q0 10 6 16t16 6h17q10 0 16 -6t6 -16v-279q0 -171 149 -171q71 0 114 45.5t43 125.5v279q0 10 6 16t16 6h17q10 0 16 -6t6 -16v-476q0 -10 -6 -16t-16 -6h-17q-10 0 -16 6t-6 16v47q-27 -35 -64.5 -57t-102.5 -22z
M289 590q-44 0 -68 17t-33 44t-9 55q0 8 5 13.5t14 5.5h15q9 0 14 -5.5t5 -13.5q0 -24 11.5 -45t45.5 -21q35 0 46 21t11 45q0 8 5 13.5t14 5.5h15q9 0 14 -5.5t5 -13.5q0 -28 -9 -55t-33 -44t-68 -17z" />
    <glyph glyph-name="Uring" unicode="&#x16e;" horiz-adv-x="691" 
d="M346 -10q-81 0 -138.5 30t-88.5 92t-31 159v406q0 11 6 17t16 6h18q11 0 17 -6t6 -17v-409q0 -112 52.5 -165t142.5 -53q89 0 141.5 53t52.5 165v409q0 11 6.5 17t16.5 6h18q10 0 16 -6t6 -17v-406q0 -97 -30.5 -159t-87.5 -92t-139 -30zM346 740q-33 0 -56.5 21
t-23.5 54t23.5 54t56.5 21t56.5 -21t23.5 -54t-23.5 -54t-56.5 -21zM346 785q13 0 21.5 8.5t8.5 21.5t-8.5 21.5t-21.5 8.5t-21.5 -8.5t-8.5 -21.5t8.5 -21.5t21.5 -8.5z" />
    <glyph glyph-name="uring" unicode="&#x16f;" horiz-adv-x="585" 
d="M276 -10q-68 0 -112.5 29.5t-66 80.5t-21.5 114v284q0 10 6 16t16 6h17q10 0 16 -6t6 -16v-279q0 -171 149 -171q71 0 114 45.5t43 125.5v279q0 10 6 16t16 6h17q10 0 16 -6t6 -16v-476q0 -10 -6 -16t-16 -6h-17q-10 0 -16 6t-6 16v47q-27 -35 -64.5 -57t-102.5 -22z
M289 590q-33 0 -56.5 21t-23.5 54t23.5 54t56.5 21t56.5 -21t23.5 -54t-23.5 -54t-56.5 -21zM289 635q13 0 21.5 8.5t8.5 21.5t-8.5 21.5t-21.5 8.5t-21.5 -8.5t-8.5 -21.5t8.5 -21.5t21.5 -8.5z" />
    <glyph glyph-name="Uhungarumlaut" unicode="&#x170;" horiz-adv-x="691" 
d="M346 -10q-81 0 -138.5 30t-88.5 92t-31 159v406q0 11 6 17t16 6h18q11 0 17 -6t6 -17v-409q0 -112 52.5 -165t142.5 -53q89 0 141.5 53t52.5 165v409q0 11 6.5 17t16.5 6h18q10 0 16 -6t6 -17v-406q0 -97 -30.5 -159t-87.5 -92t-139 -30zM407 750q-16 0 -16 16q0 4 2 8
t3 7l36 80q9 19 37 19h40q20 0 20 -19q0 -7 -6 -13l-71 -84q-12 -14 -30 -14h-15zM259 750q-16 0 -16 16q0 4 2 8t3 7l36 80q9 19 37 19h40q20 0 20 -19q0 -7 -6 -13l-71 -84q-12 -14 -30 -14h-15z" />
    <glyph glyph-name="uhungarumlaut" unicode="&#x171;" horiz-adv-x="585" 
d="M276 -10q-68 0 -112.5 29.5t-66 80.5t-21.5 114v284q0 10 6 16t16 6h17q10 0 16 -6t6 -16v-279q0 -171 149 -171q71 0 114 45.5t43 125.5v279q0 10 6 16t16 6h17q10 0 16 -6t6 -16v-476q0 -10 -6 -16t-16 -6h-17q-10 0 -16 6t-6 16v47q-27 -35 -64.5 -57t-102.5 -22z
M343 595q-16 0 -16 16q0 4 2 8t3 7l36 80q9 19 37 19h35q20 0 20 -19q0 -7 -6 -13l-71 -84q-12 -14 -30 -14h-10zM200 595q-16 0 -16 16q0 4 2 8t3 7l36 80q9 19 37 19h35q20 0 20 -19q0 -7 -6 -13l-71 -84q-12 -14 -30 -14h-10z" />
    <glyph glyph-name="Uogonek" unicode="&#x172;" horiz-adv-x="691" 
d="M409 -220q-40 0 -70 17t-46 48t-16 73q0 26 4 44.5t11 31.5q-97 13 -150.5 80.5t-53.5 196.5v406q0 11 6 17t16 6h18q11 0 17 -6t6 -17v-409q0 -112 52.5 -165t142.5 -53q89 0 141.5 53t52.5 165v409q0 11 6.5 17t16.5 6h18q10 0 16 -6t6 -17v-406q0 -83 -22.5 -140.5
t-65 -91t-103.5 -44.5q-32 -7 -53.5 -23t-21.5 -54t21.5 -59.5t54.5 -21.5h15q10 0 16 -6t6 -16v-13q0 -10 -6 -16t-16 -6h-19z" />
    <glyph glyph-name="uogonek" unicode="&#x173;" horiz-adv-x="585" 
d="M473 -220q-30 0 -55.5 15t-41 44t-15.5 71q0 32 13 57t32 42.5t37 25.5v4v4v26q-27 -35 -64.5 -57t-102.5 -22q-68 0 -112.5 29.5t-66 80.5t-21.5 114v284q0 10 6 16t16 6h17q10 0 16 -6t6 -16v-279q0 -171 149 -171q71 0 114 45.5t43 125.5v279q0 10 6 16t16 6h17
q10 0 16 -6t6 -16v-476q0 -6 -3.5 -11.5t-12.5 -10.5l-3 -2q-32 -14 -48 -34t-16 -54q0 -38 15.5 -55.5t40.5 -17.5h5q10 0 16 -6t6 -16v-13q0 -10 -6 -16t-16 -6h-9z" />
    <glyph glyph-name="Wcircumflex" unicode="&#x174;" horiz-adv-x="788" 
d="M215 0q-12 0 -18.5 5.5t-9.5 18.5l-137 644q-1 4 -1.5 7.5t-0.5 4.5q0 8 6 14t14 6h21q19 0 22 -15l117 -570l124 407q3 9 10.5 16t20.5 7h22q14 0 21 -7t10 -16l124 -407l117 570q3 15 22 15h21q8 0 14 -6t6 -14q0 -1 -0.5 -4.5t-1.5 -7.5l-137 -644q-3 -13 -9.5 -18.5
t-18.5 -5.5h-15q-12 0 -19.5 6t-11.5 18l-133 422l-133 -422q-4 -12 -11.5 -18t-19.5 -6h-15zM272 750q-14 0 -14 11q0 8 12 20l87 85q11 11 18 12.5t14 1.5h10q8 0 15 -1.5t17 -12.5l87 -85q12 -12 12 -20q0 -11 -14 -11h-17q-6 0 -13.5 2t-11.5 5l-80 60l-80 -60
q-4 -3 -11.5 -5t-13.5 -2h-17z" />
    <glyph glyph-name="wcircumflex" unicode="&#x175;" horiz-adv-x="786" 
d="M216 0q-13 0 -20 6t-12 19l-141 464q-2 6 -2 11q0 8 6 14t14 6h19q10 0 15.5 -5.5t6.5 -9.5l123 -416l131 411q2 6 8 13t19 7h20q13 0 19.5 -7t7.5 -13l131 -411l123 416q1 4 6.5 9.5t15.5 5.5h19q8 0 14 -6t6 -14q0 -5 -2 -11l-141 -464q-4 -13 -11 -19t-21 -6h-17
q-13 0 -21.5 6t-12.5 19l-126 394l-126 -394q-4 -13 -12 -19t-22 -6h-17zM271 595q-14 0 -14 11q0 8 12 20l87 85q11 11 18 12.5t14 1.5h10q8 0 15 -1.5t17 -12.5l87 -85q12 -12 12 -20q0 -11 -14 -11h-17q-6 0 -13.5 2t-11.5 5l-80 60l-80 -60q-4 -3 -11.5 -5t-13.5 -2h-17
z" />
    <glyph glyph-name="Ycircumflex" unicode="&#x176;" horiz-adv-x="632" 
d="M306 0q-10 0 -16 6t-6 16v245l-244 400q-1 3 -2.5 6t-1.5 7q0 8 6 14t14 6h20q7 0 13 -3.5t10 -11.5l217 -353l217 353q5 8 10.5 11.5t12.5 3.5h20q8 0 14 -6t6 -14q0 -4 -1 -7t-3 -6l-244 -400v-245q0 -10 -6 -16t-17 -6h-19zM194 750q-14 0 -14 11q0 8 12 20l87 85
q11 11 18 12.5t14 1.5h10q8 0 15 -1.5t17 -12.5l87 -85q12 -12 12 -20q0 -11 -14 -11h-17q-6 0 -13.5 2t-11.5 5l-80 60l-80 -60q-4 -3 -11.5 -5t-13.5 -2h-17z" />
    <glyph glyph-name="ycircumflex" unicode="&#x177;" horiz-adv-x="532" 
d="M169 -190q-8 0 -14 6t-6 14q0 4 1.5 8.5t4.5 11.5l77 180l-191 450q-6 15 -6 20q0 8 6 14t14 6h21q10 0 15.5 -4.5t7.5 -10.5l168 -396l172 396q3 6 8 10.5t15 4.5h20q8 0 14 -6t6 -14q0 -5 -6 -20l-284 -655q-3 -6 -8 -10.5t-15 -4.5h-20zM140 595q-14 0 -14 11
q0 8 12 20l87 85q11 11 18 12.5t14 1.5h10q8 0 15 -1.5t17 -12.5l87 -85q12 -12 12 -20q0 -11 -14 -11h-17q-6 0 -13.5 2t-11.5 5l-80 60l-80 -60q-4 -3 -11.5 -5t-13.5 -2h-17z" />
    <glyph glyph-name="Ydieresis" unicode="&#x178;" horiz-adv-x="632" 
d="M306 0q-10 0 -16 6t-6 16v245l-244 400q-1 3 -2.5 6t-1.5 7q0 8 6 14t14 6h20q7 0 13 -3.5t10 -11.5l217 -353l217 353q5 8 10.5 11.5t12.5 3.5h20q8 0 14 -6t6 -14q0 -4 -1 -7t-3 -6l-244 -400v-245q0 -10 -6 -16t-17 -6h-19zM388 750q-10 0 -16 6t-6 16v38q0 10 6 16.5
t16 6.5h38q10 0 16.5 -6.5t6.5 -16.5v-38q0 -10 -6.5 -16t-16.5 -6h-38zM205 750q-10 0 -16 6t-6 16v38q0 10 6 16.5t16 6.5h38q10 0 16.5 -6.5t6.5 -16.5v-38q0 -10 -6.5 -16t-16.5 -6h-38z" />
    <glyph glyph-name="Zacute" unicode="&#x179;" horiz-adv-x="579" 
d="M64 0q-10 0 -16 6.5t-6 16.5v20q0 15 6 24.5t9 13.5l394 559h-378q-10 0 -16 6t-6 16v15q0 11 6 17t16 6h431q11 0 17 -6t6 -17v-20q0 -13 -4 -21t-9 -15l-392 -561h392q11 0 17 -6t6 -17v-15q0 -10 -6 -16t-17 -6h-450zM268 750q-16 0 -16 16q0 8 5 13l69 83q8 10 15 14
t22 4h46q19 0 19 -19q0 -7 -5 -12l-109 -89q-8 -7 -14.5 -8.5t-16.5 -1.5h-15z" />
    <glyph glyph-name="zacute" unicode="&#x17a;" horiz-adv-x="490" 
d="M64 0q-10 0 -16 6t-6 16v17q0 8 4.5 16t9.5 15l294 392h-276q-10 0 -16 6t-6 16v14q0 10 6 16t16 6h336q10 0 16 -6t6 -16v-17q0 -8 -4.5 -15.5t-9.5 -15.5l-292 -392h304q10 0 16 -6t6 -16v-14q0 -10 -6 -16t-16 -6h-366zM231 595q-16 0 -16 16q0 8 5 13l69 83
q8 10 15 14t22 4h41q19 0 19 -19q0 -7 -5 -12l-109 -89q-8 -7 -14.5 -8.5t-16.5 -1.5h-10z" />
    <glyph glyph-name="Zdotaccent" unicode="&#x17b;" horiz-adv-x="579" 
d="M64 0q-10 0 -16 6.5t-6 16.5v20q0 15 6 24.5t9 13.5l394 559h-378q-10 0 -16 6t-6 16v15q0 11 6 17t16 6h431q11 0 17 -6t6 -17v-20q0 -13 -4 -21t-9 -15l-392 -561h392q11 0 17 -6t6 -17v-15q0 -10 -6 -16t-17 -6h-450zM255 750q-10 0 -16 6t-6 16v48q0 10 6 16.5
t16 6.5h48q10 0 16.5 -6.5t6.5 -16.5v-48q0 -10 -6.5 -16t-16.5 -6h-48z" />
    <glyph glyph-name="zdotaccent" unicode="&#x17c;" horiz-adv-x="490" 
d="M64 0q-10 0 -16 6t-6 16v17q0 8 4.5 16t9.5 15l294 392h-276q-10 0 -16 6t-6 16v14q0 10 6 16t16 6h336q10 0 16 -6t6 -16v-17q0 -8 -4.5 -15.5t-9.5 -15.5l-292 -392h304q10 0 16 -6t6 -16v-14q0 -10 -6 -16t-16 -6h-366zM220 617q-10 0 -16 6t-6 16v48q0 10 6 16.5
t16 6.5h48q10 0 16.5 -6.5t6.5 -16.5v-48q0 -10 -6.5 -16t-16.5 -6h-48z" />
    <glyph glyph-name="Zcaron" unicode="&#x17d;" horiz-adv-x="579" 
d="M64 0q-10 0 -16 6.5t-6 16.5v20q0 15 6 24.5t9 13.5l394 559h-378q-10 0 -16 6t-6 16v15q0 11 6 17t16 6h431q11 0 17 -6t6 -17v-20q0 -13 -4 -21t-9 -15l-392 -561h392q11 0 17 -6t6 -17v-15q0 -10 -6 -16t-17 -6h-450zM275 750q-7 0 -14 2t-18 12l-87 85q-12 12 -12 20
q0 11 14 11h17q6 0 13.5 -2t11.5 -5l80 -60l80 60q4 3 11.5 5t13.5 2h17q14 0 14 -11q0 -8 -12 -20l-87 -85q-10 -10 -17 -12t-15 -2h-10z" />
    <glyph glyph-name="zcaron" unicode="&#x17e;" horiz-adv-x="490" 
d="M64 0q-10 0 -16 6t-6 16v17q0 8 4.5 16t9.5 15l294 392h-276q-10 0 -16 6t-6 16v14q0 10 6 16t16 6h336q10 0 16 -6t6 -16v-17q0 -8 -4.5 -15.5t-9.5 -15.5l-292 -392h304q10 0 16 -6t6 -16v-14q0 -10 -6 -16t-16 -6h-366zM240 595q-7 0 -14 2t-18 12l-87 85
q-12 12 -12 20q0 11 14 11h17q6 0 13.5 -2t11.5 -5l80 -60l80 60q4 3 11.5 5t13.5 2h17q14 0 14 -11q0 -8 -12 -20l-87 -85q-10 -10 -17 -12t-15 -2h-10z" />
    <glyph glyph-name="longs" unicode="&#x17f;" horiz-adv-x="272" 
d="M152 0q-10 0 -16 6t-6 16v440h-89q-10 0 -16 6t-6 16v14q0 10 6 16t16 6h89v52q0 47 12.5 85t45 60.5t93.5 22.5h52q10 0 16 -6t6 -16v-14q0 -10 -6 -16t-16 -6h-52q-40 0 -59.5 -15t-25 -39.5t-5.5 -55.5v-550q0 -10 -6 -16t-16 -6h-17z" />
    <glyph glyph-name="florin" unicode="&#x192;" horiz-adv-x="395" 
d="M47 -225q-10 0 -16 6t-6 16v14q0 10 6 16t16 6h8q41 0 60 15t24.5 40t5.5 55v519h-89q-10 0 -16 6t-6 16v14q0 10 6 16t16 6h89v57q0 45 12.5 82t45 59t93.5 22h52q10 0 16 -6t6 -16v-14q0 -10 -6 -16t-16 -6h-52q-53 0 -71.5 -28.5t-18.5 -81.5v-52h132q10 0 16 -6
t6 -16v-14q0 -10 -6 -16t-16 -6h-132v-519q0 -47 -12.5 -85t-45 -60.5t-93.5 -22.5h-8z" />
    <glyph glyph-name="AEacute" unicode="&#x1fc;" horiz-adv-x="920" 
d="M25 0q-8 0 -14 6t-6 14q0 6 4 14l2.5 4.5t13 23t33.5 59t63 111.5t102.5 181t151.5 268q6 11 12.5 15t13.5 4h433q11 0 17 -6t6 -17v-15q0 -10 -6 -16t-17 -6h-349v-255h327q11 0 17 -6t6 -17v-15q0 -10 -6 -16t-17 -6h-327v-265h357q11 0 17 -6t6 -17v-15q0 -10 -6 -16
t-17 -6h-398q-10 0 -16 6t-6 16v153h-262q-33 -59 -51.5 -92t-26.5 -47.5t-10 -17.5l-2 -3q-4 -7 -9.5 -11t-12.5 -4h-23zM194 235h228v398h-1zM448 750q-16 0 -16 16q0 8 5 13l69 83q8 10 15 14t22 4h46q19 0 19 -19q0 -7 -5 -12l-109 -89q-8 -7 -14.5 -8.5t-16.5 -1.5h-15
z" />
    <glyph glyph-name="aeacute" unicode="&#x1fd;" horiz-adv-x="881" 
d="M222 -10q-53 0 -93.5 20t-63 53.5t-22.5 75.5q0 68 55 110.5t143 54.5l158 22v32q0 53 -32.5 83.5t-103.5 30.5q-37 0 -63 -10t-41.5 -25.5t-21.5 -32.5q-4 -12 -9.5 -16.5t-14.5 -4.5h-14q-9 0 -15.5 6.5t-6.5 15.5q0 14 10.5 35t32.5 41.5t57.5 34.5t85.5 14
q76 0 118 -25.5t60 -62.5q26 39 68.5 63.5t105.5 24.5q70 0 112.5 -25.5t64.5 -65.5t30 -84.5t8 -82.5v-15q0 -10 -6.5 -16t-16.5 -6h-346v-10q2 -65 25.5 -104t58.5 -56t69 -17q39 0 77 15.5t62 49.5q8 12 13.5 15t16.5 3h12q21 0 21 -20q0 -11 -12.5 -31t-38 -40.5
t-63 -35t-88.5 -14.5q-73 0 -118.5 31t-68.5 79q-29 -55 -80 -82.5t-125 -27.5zM232 48q46 0 84 20t60.5 61.5t22.5 104.5v34l-129 -18q-82 -11 -124 -38t-42 -68q0 -33 19 -54t48.5 -31.5t60.5 -10.5zM461 291h308v4q0 76 -37.5 126.5t-116.5 50.5q-38 0 -72.5 -19t-57 -58
t-24.5 -100v-4zM429 595q-16 0 -16 16q0 8 5 13l69 83q8 10 15 14t22 4h41q19 0 19 -19q0 -7 -5 -12l-109 -89q-8 -7 -14.5 -8.5t-16.5 -1.5h-10z" />
    <glyph glyph-name="Oslashacute" unicode="&#x1fe;" horiz-adv-x="662" 
d="M331 -10q-83 0 -141 29.5t-89 91t-34 155.5q-1 45 -1 84t1 84q3 93 36 154.5t91.5 91.5t136.5 30t136.5 -30t92 -91.5t35.5 -154.5q2 -45 2 -84t-2 -84q-2 -94 -33.5 -155.5t-89.5 -91t-141 -29.5zM331 50q86 0 141.5 52t59.5 169q2 45 2 79t-2 79q-2 78 -28.5 127
t-71 71.5t-101.5 22.5q-56 0 -100.5 -22.5t-71 -71.5t-29.5 -127q-1 -45 -1 -79t1 -79q4 -117 60 -169t141 -52zM107 -65q-12 0 -17.5 11t0.5 21l424 783q2 4 7 9.5t15 5.5h19q11 0 17 -8t-2 -24l-424 -783q-2 -4 -7 -9.5t-15 -5.5h-17zM319 750q-16 0 -16 16q0 8 5 13
l69 83q8 10 15 14t22 4h46q19 0 19 -19q0 -7 -5 -12l-109 -89q-8 -7 -14.5 -8.5t-16.5 -1.5h-15z" />
    <glyph glyph-name="oslashacute" unicode="&#x1ff;" horiz-adv-x="558" 
d="M279 -10q-72 0 -120.5 30t-74 82t-27.5 116q-1 15 -1 42t1 42q2 65 27.5 116.5t74 81.5t120.5 30t120.5 -30t74 -81.5t27.5 -116.5q1 -15 1 -42t-1 -42q-2 -64 -27.5 -116t-74 -82t-120.5 -30zM279 48q70 0 114 45t47 130q1 15 1 37t-1 37q-3 86 -47 130.5t-114 44.5
t-114 -44.5t-47 -130.5q-1 -15 -1 -37t1 -37q3 -85 47 -130t114 -45zM77 -28q-8 0 -14 6t-6 14v5t3 7l382 528q3 4 7.5 9.5t14.5 5.5h17q8 0 14 -6t6 -14q0 -1 -0.5 -4.5t-2.5 -7.5l-382 -528q-3 -4 -7.5 -9.5t-14.5 -5.5h-17zM265 595q-16 0 -16 16q0 8 5 13l69 83
q8 10 15 14t22 4h41q19 0 19 -19q0 -7 -5 -12l-109 -89q-8 -7 -14.5 -8.5t-16.5 -1.5h-10z" />
    <glyph glyph-name="uni0218" unicode="&#x218;" horiz-adv-x="605" 
d="M304 -10q-81 0 -137.5 26t-86.5 67t-32 87q0 8 6 14t15 6h20q10 0 15.5 -6t6.5 -14q4 -28 25 -55.5t62 -46t106 -18.5q98 0 143 35.5t45 95.5q0 40 -23.5 64.5t-71.5 44t-123 43.5q-71 23 -117 47.5t-67.5 59.5t-21.5 90q0 51 27 91.5t78.5 64.5t125.5 24q59 0 103 -16
t73 -42.5t44 -57t16 -59.5q0 -7 -5 -13.5t-16 -6.5h-20q-5 0 -12.5 4t-9.5 16q-6 50 -52.5 82.5t-120.5 32.5t-121 -29t-47 -91q0 -40 21 -65.5t66 -45t116 -42.5q75 -24 124 -48t73 -58.5t24 -89.5q0 -61 -30.5 -103.5t-86.5 -65t-134 -22.5zM254 -210q-8 0 -11.5 6
t-2.5 15l17 112q2 12 7.5 19.5t17.5 7.5h45q7 0 11 -5t4 -11q0 -9 -4 -18l-40 -105q-4 -10 -9.5 -15.5t-16.5 -5.5h-18z" />
    <glyph glyph-name="uni0219" unicode="&#x219;" horiz-adv-x="492" 
d="M246 -10q-52 0 -89.5 14t-61.5 33.5t-35.5 38.5t-12.5 29q-1 11 7 16.5t15 5.5h15q6 0 10.5 -2t11.5 -11q13 -17 30 -32.5t43.5 -24.5t66.5 -9q60 0 99 23t39 68q0 28 -15.5 45t-52.5 30t-100 27q-63 15 -96.5 36t-45.5 48.5t-12 59.5q0 35 20 68.5t59.5 55t99.5 21.5
q49 0 83.5 -13t56.5 -31.5t32.5 -36.5t11.5 -29q1 -10 -6 -16t-16 -6h-15q-8 0 -13 3.5t-9 9.5q-10 16 -24 30t-37.5 22.5t-63.5 8.5q-60 0 -89 -24.5t-29 -62.5q0 -22 12 -38.5t45 -30t96 -28.5q64 -14 101 -34.5t52.5 -48.5t15.5 -66q0 -40 -22.5 -74t-67 -54.5
t-109.5 -20.5zM196 -210q-8 0 -11.5 6t-2.5 15l17 112q2 12 7.5 19.5t17.5 7.5h45q7 0 11 -5t4 -11q0 -9 -4 -18l-40 -105q-4 -10 -9.5 -15.5t-16.5 -5.5h-18z" />
    <glyph glyph-name="uni021A" unicode="&#x21a;" horiz-adv-x="557" 
d="M269 0q-10 0 -16 6t-6 16v618h-198q-10 0 -16 6t-6 16v15q0 11 6 17t16 6h458q11 0 17 -6t6 -17v-15q0 -10 -6 -16t-17 -6h-197v-618q0 -10 -6 -16t-17 -6h-18zM228 -210q-8 0 -11.5 6t-2.5 15l17 112q2 12 7.5 19.5t17.5 7.5h45q7 0 11 -5t4 -11q0 -9 -4 -18l-40 -105
q-4 -10 -9.5 -15.5t-16.5 -5.5h-18z" />
    <glyph glyph-name="uni021B" unicode="&#x21b;" horiz-adv-x="359" 
d="M256 0q-52 0 -82 22t-42 60t-12 85v295h-78q-10 0 -16 6t-6 16v14q0 10 6 16t16 6h78v168q0 10 6 16t16 6h17q10 0 16 -6t6 -16v-168h124q10 0 16 -6t6 -16v-14q0 -10 -6 -16t-16 -6h-124v-291q0 -53 17.5 -83t62.5 -30h54q10 0 16 -6t6 -16v-14q0 -10 -6 -16t-16 -6h-59
zM180 -210q-8 0 -11.5 6t-2.5 15l17 112q2 12 7.5 19.5t17.5 7.5h45q7 0 11 -5t4 -11q0 -9 -4 -18l-40 -105q-4 -10 -9.5 -15.5t-16.5 -5.5h-18z" />
    <glyph glyph-name="uni0237" unicode="&#x237;" horiz-adv-x="269" 
d="M32 -190q-10 0 -16 6t-6 16v14q0 10 6 16t16 6h4q41 0 60 15t24.5 40t5.5 55v484h-84q-10 0 -16 6t-6 16v14q0 10 6 16t16 6h123q10 0 16 -6t6 -16v-520q0 -47 -12.5 -85t-45 -60.5t-93.5 -22.5h-4z" />
    <glyph glyph-name="uni02BC" unicode="&#x2bc;" horiz-adv-x="102" 
d="M14 635q-8 0 -11.5 6t-2.5 15l17 112q2 12 7.5 19.5t17.5 7.5h45q7 0 11 -5t4 -11q0 -9 -4 -18l-40 -105q-4 -10 -9.5 -15.5t-16.5 -5.5h-18z" />
    <glyph glyph-name="circumflex" unicode="&#x2c6;" horiz-adv-x="412" 
d="M84 595q-14 0 -14 11q0 8 12 20l87 85q11 11 18 12.5t14 1.5h10q8 0 15 -1.5t17 -12.5l87 -85q12 -12 12 -20q0 -11 -14 -11h-17q-6 0 -13.5 2t-11.5 5l-80 60l-80 -60q-4 -3 -11.5 -5t-13.5 -2h-17z" />
    <glyph glyph-name="caron" unicode="&#x2c7;" horiz-adv-x="412" 
d="M201 595q-7 0 -14 2t-18 12l-87 85q-12 12 -12 20q0 11 14 11h17q6 0 13.5 -2t11.5 -5l80 -60l80 60q4 3 11.5 5t13.5 2h17q14 0 14 -11q0 -8 -12 -20l-87 -85q-10 -10 -17 -12t-15 -2h-10z" />
    <glyph glyph-name="breve" unicode="&#x2d8;" horiz-adv-x="370" 
d="M185 590q-44 0 -68 17t-33 44t-9 55q0 8 5 13.5t14 5.5h15q9 0 14 -5.5t5 -13.5q0 -24 11.5 -45t45.5 -21q35 0 46 21t11 45q0 8 5 13.5t14 5.5h15q9 0 14 -5.5t5 -13.5q0 -28 -9 -55t-33 -44t-68 -17z" />
    <glyph glyph-name="dotaccent" unicode="&#x2d9;" horiz-adv-x="233" 
d="M92 617q-10 0 -16 6t-6 16v48q0 10 6 16.5t16 6.5h48q10 0 16.5 -6.5t6.5 -16.5v-48q0 -10 -6.5 -16t-16.5 -6h-48z" />
    <glyph glyph-name="ring" unicode="&#x2da;" horiz-adv-x="300" 
d="M150 590q-33 0 -56.5 21t-23.5 54t23.5 54t56.5 21t56.5 -21t23.5 -54t-23.5 -54t-56.5 -21zM150 635q13 0 21.5 8.5t8.5 21.5t-8.5 21.5t-21.5 8.5t-21.5 -8.5t-8.5 -21.5t8.5 -21.5t21.5 -8.5z" />
    <glyph glyph-name="ogonek" unicode="&#x2db;" horiz-adv-x="313" 
d="M202 -220q-40 0 -70 17t-46 48t-16 73q0 43 16 74t46 48t70 17h19q10 0 16 -6t6 -16v-13q0 -10 -6 -16t-16 -6h-15q-33 0 -54.5 -22t-21.5 -60t21.5 -59.5t54.5 -21.5h15q10 0 16 -6t6 -16v-13q0 -10 -6 -16t-16 -6h-19z" />
    <glyph glyph-name="tilde" unicode="&#x2dc;" horiz-adv-x="379" 
d="M237 590q-23 0 -37.5 8.5t-26.5 17t-26 8.5q-11 0 -16 -7t-9.5 -14.5t-15.5 -7.5h-20q-7 0 -11.5 5t-4.5 11q0 14 5.5 27t15 23.5t22.5 16.5t28 6q24 0 38.5 -8.5t26.5 -17t26 -8.5q12 0 16.5 7.5l9 15t15.5 7.5h20q8 0 12 -5t4 -11q0 -14 -5.5 -27.5t-15.5 -24
t-23 -16.5t-28 -6z" />
    <glyph glyph-name="hungarumlaut" unicode="&#x2dd;" horiz-adv-x="416" 
d="M229 595q-16 0 -16 16q0 4 2 8t3 7l36 80q9 19 37 19h35q20 0 20 -19q0 -7 -6 -13l-71 -84q-12 -14 -30 -14h-10zM86 595q-16 0 -16 16q0 4 2 8t3 7l36 80q9 19 37 19h35q20 0 20 -19q0 -7 -6 -13l-71 -84q-12 -14 -30 -14h-10z" />
    <glyph glyph-name="gravecomb" unicode="&#x300;" 
d="M215 595q-10 0 -16.5 1.5t-14.5 8.5l-109 89q-5 5 -5 12q0 19 19 19h41q15 0 22 -4t15 -14l69 -83q5 -5 5 -13q0 -16 -16 -16h-10z" />
    <glyph glyph-name="acutecomb" unicode="&#x301;" 
d="M86 595q-16 0 -16 16q0 8 5 13l69 83q8 10 15 14t22 4h41q19 0 19 -19q0 -7 -5 -12l-109 -89q-8 -7 -14.5 -8.5t-16.5 -1.5h-10z" />
    <glyph glyph-name="uni0302" unicode="&#x302;" 
d="M84 595q-14 0 -14 11q0 8 12 20l87 85q11 11 18 12.5t14 1.5h10q8 0 15 -1.5t17 -12.5l87 -85q12 -12 12 -20q0 -11 -14 -11h-17q-6 0 -13.5 2t-11.5 5l-80 60l-80 -60q-4 -3 -11.5 -5t-13.5 -2h-17z" />
    <glyph glyph-name="tildecomb" unicode="&#x303;" 
d="M237 590q-23 0 -37.5 8.5t-26.5 17t-26 8.5q-11 0 -16 -7t-9.5 -14.5t-15.5 -7.5h-20q-7 0 -11.5 5t-4.5 11q0 14 5.5 27t15 23.5t22.5 16.5t28 6q24 0 38.5 -8.5t26.5 -17t26 -8.5q12 0 16.5 7.5l9 15t15.5 7.5h20q8 0 12 -5t4 -11q0 -14 -5.5 -27.5t-15.5 -24
t-23 -16.5t-28 -6z" />
    <glyph glyph-name="uni0304" unicode="&#x304;" 
d="M92 622q-10 0 -16 6t-6 16v14q0 10 6 16t16 6h199q10 0 16 -6t6 -16v-14q0 -10 -6 -16t-16 -6h-199z" />
    <glyph glyph-name="uni0306" unicode="&#x306;" 
d="M185 590q-44 0 -68 17t-33 44t-9 55q0 8 5 13.5t14 5.5h15q9 0 14 -5.5t5 -13.5q0 -24 11.5 -45t45.5 -21q35 0 46 21t11 45q0 8 5 13.5t14 5.5h15q9 0 14 -5.5t5 -13.5q0 -28 -9 -55t-33 -44t-68 -17z" />
    <glyph glyph-name="uni0307" unicode="&#x307;" 
d="M92 617q-10 0 -16 6t-6 16v48q0 10 6 16.5t16 6.5h48q10 0 16.5 -6.5t6.5 -16.5v-48q0 -10 -6.5 -16t-16.5 -6h-48z" />
    <glyph glyph-name="uni0308" unicode="&#x308;" 
d="M245 627q-10 0 -16 6t-6 16v38q0 10 6 16.5t16 6.5h38q10 0 16.5 -6.5t6.5 -16.5v-38q0 -10 -6.5 -16t-16.5 -6h-38zM92 627q-10 0 -16 6t-6 16v38q0 10 6 16.5t16 6.5h38q10 0 16.5 -6.5t6.5 -16.5v-38q0 -10 -6.5 -16t-16.5 -6h-38z" />
    <glyph glyph-name="uni030A" unicode="&#x30a;" 
d="M150 590q-33 0 -56.5 21t-23.5 54t23.5 54t56.5 21t56.5 -21t23.5 -54t-23.5 -54t-56.5 -21zM150 635q13 0 21.5 8.5t8.5 21.5t-8.5 21.5t-21.5 8.5t-21.5 -8.5t-8.5 -21.5t8.5 -21.5t21.5 -8.5z" />
    <glyph glyph-name="uni030B" unicode="&#x30b;" 
d="M229 595q-16 0 -16 16q0 4 2 8t3 7l36 80q9 19 37 19h35q20 0 20 -19q0 -7 -6 -13l-71 -84q-12 -14 -30 -14h-10zM86 595q-16 0 -16 16q0 4 2 8t3 7l36 80q9 19 37 19h35q20 0 20 -19q0 -7 -6 -13l-71 -84q-12 -14 -30 -14h-10z" />
    <glyph glyph-name="uni030C" unicode="&#x30c;" 
d="M201 595q-7 0 -14 2t-18 12l-87 85q-12 12 -12 20q0 11 14 11h17q6 0 13.5 -2t11.5 -5l80 -60l80 60q4 3 11.5 5t13.5 2h17q14 0 14 -11q0 -8 -12 -20l-87 -85q-10 -10 -17 -12t-15 -2h-10z" />
    <glyph glyph-name="uni0312" unicode="&#x312;" 
d="M252 595q-7 0 -11 5t-4 11q0 9 4 18l40 105q5 10 10 15.5t16 5.5h18q8 0 12 -6t2 -15l-17 -112q-1 -12 -7 -19.5t-18 -7.5h-45z" />
    <glyph glyph-name="uni0326" unicode="&#x326;" 
d="M88 -210q-8 0 -11.5 6t-2.5 15l17 112q2 12 7.5 19.5t17.5 7.5h45q7 0 11 -5t4 -11q0 -9 -4 -18l-40 -105q-4 -10 -9.5 -15.5t-16.5 -5.5h-18z" />
    <glyph glyph-name="uni0327" unicode="&#x327;" 
d="M156 -220q-28 1 -49.5 10.5t-31 21.5t-1.5 19l14 13q9 8 16 3t18.5 -13t33.5 -8q17 0 30 10.5t13 29.5q0 18 -13 28t-30 10q-16 0 -26.5 -4.5t-18 -6t-15.5 6.5l-16 17q-5 6 -1.5 14.5t6.5 15.5l35 80h58l-42 -85q6 4 16.5 6t21.5 2q33 0 54.5 -23t21.5 -59t-23.5 -62.5
t-70.5 -25.5z" />
    <glyph glyph-name="uni0328" unicode="&#x328;" 
d="M202 -220q-40 0 -70 17t-46 48t-16 73q0 43 16 74t46 48t70 17h19q10 0 16 -6t6 -16v-13q0 -10 -6 -16t-16 -6h-15q-33 0 -54.5 -22t-21.5 -60t21.5 -59.5t54.5 -21.5h15q10 0 16 -6t6 -16v-13q0 -10 -6 -16t-16 -6h-19z" />
    <glyph glyph-name="uni0335" unicode="&#x335;" 
d="M72 271q-10 0 -16 6t-6 16v14q0 10 6 16t16 6h245q10 0 16 -6t6 -16v-14q0 -10 -6 -16t-16 -6h-245z" />
    <glyph glyph-name="uni0337" unicode="&#x337;" 
d="M22 -45q-8 0 -14 6t-6 14v5t3 7l382 528q3 4 7.5 9.5t14.5 5.5h17q8 0 14 -6t6 -14q0 -1 -0.5 -4.5t-2.5 -7.5l-382 -528q-3 -4 -7.5 -9.5t-14.5 -5.5h-17z" />
    <glyph glyph-name="uni0338" unicode="&#x338;" 
d="M7 -64q-12 0 -17.5 11t0.5 21l424 783q2 4 7 9.5t15 5.5h19q11 0 17 -8t-2 -24l-424 -783q-2 -4 -7 -9.5t-15 -5.5h-17z" />
    <glyph glyph-name="uni0400" unicode="&#x400;" horiz-adv-x="592" 
d="M116 0q-10 0 -16 6t-6 16v655q0 11 6 17t16 6h390q11 0 17 -6t6 -17v-15q0 -10 -6 -16t-17 -6h-349v-255h327q11 0 17 -6t6 -17v-15q0 -10 -6 -16t-17 -6h-327v-265h357q11 0 17 -6t6 -17v-15q0 -10 -6 -16t-17 -6h-398zM323 750q-10 0 -16.5 1.5t-14.5 8.5l-109 89
q-5 5 -5 12q0 19 19 19h46q15 0 22 -4t15 -14l69 -83q5 -5 5 -13q0 -16 -16 -16h-15z" />
    <glyph glyph-name="uni0401" unicode="&#x401;" horiz-adv-x="592" 
d="M116 0q-10 0 -16 6t-6 16v655q0 11 6 17t16 6h390q11 0 17 -6t6 -17v-15q0 -10 -6 -16t-17 -6h-349v-255h327q11 0 17 -6t6 -17v-15q0 -10 -6 -16t-17 -6h-327v-265h357q11 0 17 -6t6 -17v-15q0 -10 -6 -16t-17 -6h-398zM373 807q-10 0 -16 6t-6 16v38q0 10 6 16.5
t16 6.5h38q10 0 16.5 -6.5t6.5 -16.5v-38q0 -10 -6.5 -16t-16.5 -6h-38zM220 807q-10 0 -16 6t-6 16v38q0 10 6 16.5t16 6.5h38q10 0 16.5 -6.5t6.5 -16.5v-38q0 -10 -6.5 -16t-16.5 -6h-38z" />
    <glyph glyph-name="uni0402" unicode="&#x402;" horiz-adv-x="688" 
d="M210 0q-10 0 -16.5 6t-6.5 16v618h-138q-10 0 -16 6t-6 16v15q0 11 6 17t16 6h428q11 0 17 -6t6 -17v-15q0 -10 -6 -16t-17 -6h-227v-247q15 25 47 39t70.5 20t70.5 6q104 0 157 -52t53 -150v-38q0 -61 -23.5 -110.5t-76 -78.5t-139.5 -29h-4q-10 0 -16 6t-6 16v16
q0 10 6 16t16 6h4q70 0 108 21t53 57t15 80v33q0 75 -37 111t-118 36q-25 0 -56 -4.5t-59.5 -17.5t-46.5 -36.5t-18 -61.5v-256q0 -10 -6 -16t-16 -6h-18z" />
    <glyph glyph-name="uni0403" unicode="&#x403;" horiz-adv-x="505" 
d="M116 0q-10 0 -16 6t-6 16v655q0 11 6 17t16 6h366q11 0 17 -6t6 -17v-15q0 -10 -6 -16t-17 -6h-325v-618q0 -10 -6 -16t-17 -6h-18zM302 750q-16 0 -16 16q0 8 5 13l69 83q8 10 15 14t22 4h46q19 0 19 -19q0 -7 -5 -12l-109 -89q-8 -7 -14.5 -8.5t-16.5 -1.5h-15z" />
    <glyph glyph-name="uni0404" unicode="&#x404;" horiz-adv-x="620" 
d="M322 -10q-72 0 -129 30t-91 97t-37 179q0 14 -0.5 27t-0.5 26t0.5 26.5t0.5 28.5q3 112 37 179t91 97t129 30q70 0 123 -22t84.5 -60t37.5 -88q1 -9 -5.5 -14.5t-15.5 -5.5h-20q-10 0 -14.5 4.5t-7.5 16.5q-11 45 -55 77t-127 32q-92 0 -143 -59.5t-51 -186.5v-23h264
q10 0 16 -6t6 -17v-14q0 -10 -6 -16.5t-16 -6.5h-264v-25q0 -115 51 -180.5t143 -65.5q83 0 127 32t55 77q3 12 7.5 16.5t14.5 4.5h20q9 0 15.5 -5.5t5.5 -14.5q-6 -49 -37.5 -87.5t-84.5 -60.5t-123 -22z" />
    <glyph glyph-name="uni0405" unicode="&#x405;" horiz-adv-x="605" 
d="M304 -10q-81 0 -137.5 26t-86.5 67t-32 87q0 8 6 14t15 6h20q10 0 15.5 -6t6.5 -14q4 -28 25 -55.5t62 -46t106 -18.5q98 0 143 35.5t45 95.5q0 40 -23.5 64.5t-71.5 44t-123 43.5q-71 23 -117 47.5t-67.5 59.5t-21.5 90q0 51 27 91.5t78.5 64.5t125.5 24q59 0 103 -16
t73 -42.5t44 -57t16 -59.5q0 -7 -5 -13.5t-16 -6.5h-20q-5 0 -12.5 4t-9.5 16q-6 50 -52.5 82.5t-120.5 32.5t-121 -29t-47 -91q0 -40 21 -65.5t66 -45t116 -42.5q75 -24 124 -48t73 -58.5t24 -89.5q0 -61 -30.5 -103.5t-86.5 -65t-134 -22.5z" />
    <glyph glyph-name="uni0406" unicode="&#x406;" horiz-adv-x="251" 
d="M116 0q-10 0 -16 6t-6 16v656q0 10 6 16t16 6h19q10 0 16 -6t6 -16v-656q0 -10 -6 -16t-16 -6h-19z" />
    <glyph glyph-name="uni0407" unicode="&#x407;" horiz-adv-x="251" 
d="M116 0q-10 0 -16 6t-6 16v656q0 10 6 16t16 6h19q10 0 16 -6t6 -16v-656q0 -10 -6 -16t-16 -6h-19zM183 807q-10 0 -16 6t-6 16v38q0 10 6 16.5t16 6.5h38q10 0 16.5 -6.5t6.5 -16.5v-38q0 -10 -6.5 -16t-16.5 -6h-38zM30 807q-10 0 -16 6t-6 16v38q0 10 6 16.5t16 6.5
h38q10 0 16.5 -6.5t6.5 -16.5v-38q0 -10 -6.5 -16t-16.5 -6h-38z" />
    <glyph glyph-name="uni0408" unicode="&#x408;" horiz-adv-x="618" 
d="M288 -10q-49 0 -92 12t-76.5 37t-53 63.5t-21.5 91.5q0 9 5.5 15.5t15.5 6.5h20q10 0 15.5 -6t6.5 -15q4 -52 29.5 -84t65 -46.5t85.5 -14.5q88 0 133.5 57.5t45.5 148.5v384h-369q-10 0 -16 6t-6 16v16q0 10 6 16t16 6h409q11 0 17 -6t6 -17v-422q0 -78 -28 -138
t-81.5 -93.5t-132.5 -33.5z" />
    <glyph glyph-name="uni0409" unicode="&#x409;" horiz-adv-x="949" 
d="M43 1q-10 -1 -16.5 6t-6.5 17v18q0 20 20 22q32 5 58.5 26.5t46 66t30 118.5t10.5 182v221q0 10 6 16t16 6h327q10 0 16 -6t6 -16v-255h143q101 0 155.5 -53.5t54.5 -155.5q0 -51 -22 -100.5t-68.5 -81.5t-119.5 -32h-184q-10 0 -16 6t-6 16v618h-245v-191
q0 -120 -13.5 -204t-39.5 -136.5t-64 -78t-88 -29.5zM556 60h133q74 0 115.5 43t41.5 114q0 73 -38.5 109.5t-118.5 36.5h-133v-303z" />
    <glyph glyph-name="uni040A" unicode="&#x40a;" horiz-adv-x="979" 
d="M116 0q-10 0 -16 6t-6 16v655q0 11 6 17t16 6h18q11 0 17 -6t6 -17v-292h366v292q0 11 6 17t16 6h19q10 0 16 -6t6 -16v-255h143q101 0 155.5 -53.5t54.5 -155.5q0 -51 -22 -100.5t-68.5 -81.5t-119.5 -32h-184q-10 0 -16 6t-6 16v303h-366v-303q0 -10 -6 -16t-17 -6h-18
zM586 60h133q74 0 115.5 43t41.5 114q0 73 -38.5 109.5t-118.5 36.5h-133v-303z" />
    <glyph glyph-name="uni040B" unicode="&#x40b;" horiz-adv-x="708" 
d="M210 0q-10 0 -16.5 6t-6.5 16v618h-138q-10 0 -16 6t-6 16v15q0 11 6 17t16 6h428q11 0 17 -6t6 -17v-15q0 -10 -6 -16t-17 -6h-227v-247q15 25 47 39t70.5 20t70.5 6q104 0 157 -52t53 -150v-234q0 -10 -6 -16t-16 -6h-18q-10 0 -16.5 6t-6.5 16v229q0 75 -37 111
t-118 36q-25 0 -56 -4.5t-59.5 -17.5t-46.5 -36.5t-18 -61.5v-256q0 -10 -6 -16t-16 -6h-18z" />
    <glyph glyph-name="uni040C" unicode="&#x40c;" horiz-adv-x="614" 
d="M116 0q-10 0 -16 6t-6 16v655q0 11 6 17t16 6h18q11 0 17 -6t6 -17v-292h136l190 300q5 8 13 11.5t20 3.5h16q11 0 15.5 -6t4.5 -14q0 -5 -5 -13l-195 -307l215 -325q2 -3 2 -11q0 -10 -6.5 -17t-16.5 -7h-17q-9 0 -14 3.5t-9 9.5l-210 312h-139v-303q0 -10 -6 -16
t-17 -6h-18zM287 750q-16 0 -16 16q0 8 5 13l69 83q8 10 15 14t22 4h46q19 0 19 -19q0 -7 -5 -12l-109 -89q-8 -7 -14.5 -8.5t-16.5 -1.5h-15z" />
    <glyph glyph-name="uni040D" unicode="&#x40d;" horiz-adv-x="726" 
d="M116 0q-10 0 -16 6.5t-6 16.5v654q0 11 6.5 17t16.5 6h18q10 0 16 -6t6 -17v-567l411 578q2 2 6.5 7t14.5 5h21q10 0 16 -6t6 -17v-655q0 -10 -6 -16t-16 -6h-18q-10 0 -16.5 6t-6.5 16v566l-410 -576q-1 -2 -6 -7t-15 -5h-22zM364 750q-10 0 -16.5 1.5t-14.5 8.5
l-109 89q-5 5 -5 12q0 19 19 19h46q15 0 22 -4t15 -14l69 -83q5 -5 5 -13q0 -16 -16 -16h-15z" />
    <glyph glyph-name="uni040E" unicode="&#x40e;" horiz-adv-x="563" 
d="M113 0q-10 0 -16 6t-6 16v15q0 11 6 17t16 6h34q34 0 58.5 18t47 56t48.5 98l198 453q3 8 9.5 11.5t13.5 3.5h21q8 0 14 -6t6 -14q0 -4 -0.5 -6.5t-2.5 -5.5l-206 -464q-23 -51 -43 -89.5t-42.5 -64t-51.5 -38t-70 -12.5h-34zM296 166l-278 502q-3 6 -3 12q0 8 6 14t14 6
h21q7 0 13 -3.5t10 -11.5l253 -452zM288 740q-58 0 -89.5 17t-43.5 44t-12 55q0 8 5 13.5t14 5.5h15q9 0 14 -5.5t5 -13.5q0 -16 7.5 -31t27.5 -25t57 -10q38 0 57.5 10t27 25t7.5 31q0 8 5 13.5t14 5.5h15q9 0 14 -5.5t5 -13.5q0 -28 -12 -55t-43 -44t-90 -17z" />
    <glyph glyph-name="uni040F" unicode="&#x40f;" horiz-adv-x="700" 
d="M340 -140q-10 0 -16 6t-6 16v118h-202q-10 0 -16 6t-6 16v656q0 10 6 16t16 6h18q11 0 17 -6t6 -16v-618h386v618q0 10 6 16t16 6h18q11 0 17 -6t6 -16v-656q0 -10 -6 -16t-17 -6h-202v-118q0 -10 -6 -16t-17 -6h-18z" />
    <glyph glyph-name="uni0410" unicode="&#x410;" horiz-adv-x="650" 
d="M44 0q-8 0 -14 6t-6 14q0 5 2 11l253 649q4 10 10.5 15t18.5 5h34q12 0 18.5 -5t10.5 -15l253 -649q2 -6 2 -11q0 -8 -6 -14t-14 -6h-20q-10 0 -15 5.5t-7 9.5l-62 160h-354l-62 -160q-1 -4 -6.5 -9.5t-15.5 -5.5h-20zM172 235h306l-153 394z" />
    <glyph glyph-name="uni0411" unicode="&#x411;" horiz-adv-x="632" 
d="M116 0q-10 0 -16 6t-6 16v655q0 11 6 17t16 6h416q11 0 17 -6t6 -17v-15q0 -10 -6 -16t-17 -6h-375v-237h223q101 0 155.5 -54.5t54.5 -144.5q0 -33 -12.5 -69t-38 -66.5t-65 -49.5t-94.5 -19h-264zM157 60h213q50 0 85 20t53.5 53.5t18.5 73.5q0 61 -38.5 98.5
t-118.5 37.5h-213v-283z" />
    <glyph glyph-name="uni0412" unicode="&#x412;" horiz-adv-x="653" 
d="M116 0q-10 0 -16 6t-6 16v655q0 11 6 17t16 6h261q70 0 114.5 -25t65.5 -65.5t21 -88.5q0 -43 -13.5 -73.5t-34 -49.5t-40.5 -29q40 -20 71 -64t31 -107q0 -50 -23.5 -95.5t-70 -74t-114.5 -28.5h-268zM157 60h217q74 0 114.5 39t40.5 99q0 61 -40.5 99.5t-114.5 38.5
h-217v-276zM157 396h207q74 0 112.5 33t38.5 92t-38.5 89t-112.5 30h-207v-244z" />
    <glyph glyph-name="uni0413" unicode="&#x413;" horiz-adv-x="505" 
d="M116 0q-10 0 -16 6t-6 16v655q0 11 6 17t16 6h366q11 0 17 -6t6 -17v-15q0 -10 -6 -16t-17 -6h-325v-618q0 -10 -6 -16t-17 -6h-18z" />
    <glyph glyph-name="uni0414" unicode="&#x414;" horiz-adv-x="676" 
d="M42 -139q-10 0 -16 6t-6 16v155q0 10 6 16t16 6h23q23 0 42 21.5t32.5 68.5t20.5 123t7 184v221q0 10 6 16t16 6h356q11 0 17 -6t6 -17v-617h50q11 0 17 -6t6 -16v-155q0 -10 -6 -16t-17 -6h-18q-10 0 -16 6t-6 16v117h-495v-117q0 -10 -6 -16t-17 -6h-18zM157 60h348
v580h-275v-191q0 -158 -18.5 -251.5t-54.5 -137.5z" />
    <glyph glyph-name="uni0415" unicode="&#x415;" horiz-adv-x="592" 
d="M116 0q-10 0 -16 6t-6 16v655q0 11 6 17t16 6h390q11 0 17 -6t6 -17v-15q0 -10 -6 -16t-17 -6h-349v-255h327q11 0 17 -6t6 -17v-15q0 -10 -6 -16t-17 -6h-327v-265h357q11 0 17 -6t6 -17v-15q0 -10 -6 -16t-17 -6h-398z" />
    <glyph glyph-name="uni0416" unicode="&#x416;" horiz-adv-x="957" 
d="M68 0q-10 0 -16.5 7t-6.5 17q0 8 2 11l215 325l-195 307q-5 8 -5 13q0 8 4.5 14t15.5 6h14q12 0 20 -3.5t13 -11.5l191 -301h127v294q0 10 6 16t16 6h19q10 0 16 -6t6 -16v-294h125l191 301q5 8 13 11.5t20 3.5h16q11 0 15.5 -6t4.5 -14q0 -5 -5 -13l-195 -307l215 -325
q2 -3 2 -11q0 -10 -6.5 -17t-16.5 -7h-17q-9 0 -14 3.5t-9 9.5l-210 312h-129v-304q0 -9 -6 -15t-16 -6h-19q-10 0 -16 6t-6 16v303h-131l-208 -312q-4 -6 -9 -9.5t-14 -3.5h-17z" />
    <glyph glyph-name="uni0417" unicode="&#x417;" horiz-adv-x="599" 
d="M284 -10q-54 0 -98 12.5t-75 35.5t-49.5 54.5t-21.5 68.5q-1 9 5.5 14t15.5 5h16q8 0 15.5 -4t11.5 -19q12 -47 58 -77t122 -30q51 0 94.5 17t70 49t26.5 77q0 68 -48.5 105.5t-129.5 37.5h-71q-10 0 -16 6t-6 16v15q0 11 6 17t16 6h66q70 0 114 31.5t44 99.5
q0 38 -22.5 65.5t-59 42.5t-80.5 15q-68 0 -115.5 -25t-59.5 -84q-2 -12 -8 -16.5t-14 -4.5h-20q-9 0 -15.5 5.5t-5.5 14.5q3 40 21 71.5t48.5 53.5t73 33.5t95.5 11.5q78 0 127.5 -27t73.5 -68.5t24 -87.5q0 -32 -8 -62t-25.5 -54.5t-46.5 -42.5q35 -17 58 -43t35 -59.5
t12 -72.5q0 -60 -31 -105.5t-88 -71.5t-135 -26z" />
    <glyph glyph-name="uni0418" unicode="&#x418;" horiz-adv-x="726" 
d="M116 0q-10 0 -16 6.5t-6 16.5v654q0 11 6.5 17t16.5 6h18q10 0 16 -6t6 -17v-567l411 578q2 2 6.5 7t14.5 5h21q10 0 16 -6t6 -17v-655q0 -10 -6 -16t-16 -6h-18q-10 0 -16.5 6t-6.5 16v566l-410 -576q-1 -2 -6 -7t-15 -5h-22z" />
    <glyph glyph-name="uni0419" unicode="&#x419;" horiz-adv-x="726" 
d="M116 0q-10 0 -16 6.5t-6 16.5v654q0 11 6.5 17t16.5 6h18q10 0 16 -6t6 -17v-567l411 578q2 2 6.5 7t14.5 5h21q10 0 16 -6t6 -17v-655q0 -10 -6 -16t-16 -6h-18q-10 0 -16.5 6t-6.5 16v566l-410 -576q-1 -2 -6 -7t-15 -5h-22zM357 740q-58 0 -89.5 17t-43.5 44t-12 55
q0 8 5 13.5t14 5.5h15q9 0 14 -5.5t5 -13.5q0 -16 7.5 -31t27.5 -25t57 -10q38 0 57.5 10t27 25t7.5 31q0 8 5 13.5t14 5.5h15q9 0 14 -5.5t5 -13.5q0 -28 -12 -55t-43 -44t-90 -17z" />
    <glyph glyph-name="uni041A" unicode="&#x41a;" horiz-adv-x="614" 
d="M116 0q-10 0 -16 6t-6 16v655q0 11 6 17t16 6h18q11 0 17 -6t6 -17v-292h136l190 300q5 8 13 11.5t20 3.5h16q11 0 15.5 -6t4.5 -14q0 -5 -5 -13l-195 -307l215 -325q2 -3 2 -11q0 -10 -6.5 -17t-16.5 -7h-17q-9 0 -14 3.5t-9 9.5l-210 312h-139v-303q0 -10 -6 -16
t-17 -6h-18z" />
    <glyph glyph-name="uni041B" unicode="&#x41b;" horiz-adv-x="680" 
d="M545 0q-10 0 -16 6t-6 16v618h-275v-191q0 -120 -13.5 -204t-39.5 -136.5t-64 -78t-88 -29.5q-10 -1 -16.5 6t-6.5 17v18q0 20 20 22q32 5 58.5 26.5t46 66t30 118.5t10.5 182v221q0 10 6 16t16 6h356q11 0 17 -6t6 -17v-655q0 -10 -6 -16t-17 -6h-18z" />
    <glyph glyph-name="uni041C" unicode="&#x41c;" horiz-adv-x="780" 
d="M117 0q-10 0 -16.5 6t-6.5 16v655q0 11 6.5 17t16.5 6h25q10 0 15 -5t6 -8l227 -442l228 442q2 3 6.5 8t14.5 5h24q11 0 17 -6t6 -17v-655q0 -10 -6 -16t-17 -6h-18q-10 0 -16 6t-6 16v542l-191 -376q-4 -10 -11.5 -15t-19.5 -5h-22q-12 0 -19 5t-12 15l-191 376v-542
q0 -10 -6 -16t-16 -6h-18z" />
    <glyph glyph-name="uni041D" unicode="&#x41d;" horiz-adv-x="700" 
d="M116 0q-10 0 -16 6t-6 16v655q0 11 6 17t16 6h18q11 0 17 -6t6 -17v-292h386v292q0 11 6 17t16 6h18q11 0 17 -6t6 -17v-655q0 -10 -6 -16t-17 -6h-18q-10 0 -16 6t-6 16v303h-386v-303q0 -10 -6 -16t-17 -6h-18z" />
    <glyph glyph-name="uni041E" unicode="&#x41e;" horiz-adv-x="662" 
d="M331 -10q-83 0 -141 29.5t-89 91t-34 155.5q-1 45 -1 84t1 84q3 93 36 154.5t91.5 91.5t136.5 30t136.5 -30t92 -91.5t35.5 -154.5q2 -45 2 -84t-2 -84q-2 -94 -33.5 -155.5t-89.5 -91t-141 -29.5zM331 50q86 0 141.5 52t59.5 169q2 45 2 79t-2 79q-2 78 -28.5 127
t-71 71.5t-101.5 22.5q-56 0 -100.5 -22.5t-71 -71.5t-29.5 -127q-1 -45 -1 -79t1 -79q4 -117 60 -169t141 -52z" />
    <glyph glyph-name="uni041F" unicode="&#x41f;" horiz-adv-x="700" 
d="M116 0q-10 0 -16 6t-6 16v655q0 11 6 17t16 6h467q11 0 17 -6t6 -17v-655q0 -10 -6 -16t-17 -6h-18q-10 0 -16 6t-6 16v618h-386v-618q0 -10 -6 -16t-17 -6h-18z" />
    <glyph glyph-name="uni0420" unicode="&#x420;" horiz-adv-x="628" 
d="M116 0q-10 0 -16 6t-6 16v655q0 11 6 17t16 6h243q70 0 121.5 -23.5t80 -69.5t28.5 -114t-28.5 -114t-80 -69.5t-121.5 -23.5h-202v-264q0 -10 -6 -16t-17 -6h-18zM157 346h197q87 0 129.5 38t42.5 109t-42.5 109t-129.5 38h-197v-294z" />
    <glyph glyph-name="uni0421" unicode="&#x421;" horiz-adv-x="651" 
d="M331 -10q-91 0 -148.5 35.5t-85.5 96.5t-31 139q-1 41 -1 88t1 90q3 78 31 139.5t85.5 96.5t148.5 35q71 0 121 -20t81.5 -52.5t47 -70t17.5 -73.5q1 -9 -5.5 -14.5t-15.5 -5.5h-20q-8 0 -14 4.5t-8 16.5q-19 89 -71.5 122t-132.5 33q-91 0 -144.5 -51.5t-57.5 -164.5
q-3 -82 0 -168q4 -113 57.5 -164.5t144.5 -51.5q80 0 132.5 33t71.5 122q2 12 8 16.5t14 4.5h20q9 0 15.5 -5.5t5.5 -14.5q-2 -36 -17.5 -73.5t-47 -70t-81.5 -52.5t-121 -20z" />
    <glyph glyph-name="uni0422" unicode="&#x422;" horiz-adv-x="557" 
d="M269 0q-10 0 -16 6t-6 16v618h-198q-10 0 -16 6t-6 16v15q0 11 6 17t16 6h458q11 0 17 -6t6 -17v-15q0 -10 -6 -16t-17 -6h-197v-618q0 -10 -6 -16t-17 -6h-18z" />
    <glyph glyph-name="uni0423" unicode="&#x423;" horiz-adv-x="563" 
d="M113 0q-10 0 -16 6t-6 16v15q0 11 6 17t16 6h34q34 0 58.5 18t47 56t48.5 98l198 453q3 8 9.5 11.5t13.5 3.5h21q8 0 14 -6t6 -14q0 -4 -0.5 -6.5t-2.5 -5.5l-206 -464q-23 -51 -43 -89.5t-42.5 -64t-51.5 -38t-70 -12.5h-34zM296 166l-278 502q-3 6 -3 12q0 8 6 14t14 6
h21q7 0 13 -3.5t10 -11.5l253 -452z" />
    <glyph glyph-name="uni0424" unicode="&#x424;" horiz-adv-x="825" 
d="M403 -32q-10 0 -16 6t-6 16v84q-148 0 -224 63t-90 193q-1 12 -1 23t0.5 22t0.5 23q5 87 44 143.5t108 84.5t162 28v74q0 10 6 16t16 6h19q10 0 16 -6t6 -16v-74q93 0 162 -28t108.5 -84.5t43.5 -143.5q1 -18 1.5 -34t-1.5 -34q-12 -130 -88.5 -193t-225.5 -63v-84
q0 -10 -6 -16t-16 -6h-19zM381 134v460q-113 0 -177 -47t-74 -154q-1 -16 -1 -28.5t1 -29.5q6 -106 71.5 -153.5t179.5 -47.5zM444 134q114 0 180 47.5t71 153.5q1 11 1 20v18t-1 20q-11 107 -74.5 154t-176.5 47v-460z" />
    <glyph glyph-name="uni0425" unicode="&#x425;" horiz-adv-x="609" 
d="M50 0q-8 0 -14 6t-6 14q0 4 1.5 7.5t2.5 5.5l233 323l-224 311q-4 6 -4 13q0 8 6 14t14 6h24q7 0 12.5 -3.5t10.5 -11.5l201 -280l197 280q5 8 10.5 11.5t12.5 3.5h22q8 0 14 -6t6 -14q0 -7 -4 -13l-221 -313l232 -321q2 -2 3 -5.5t1 -7.5q0 -8 -6 -14t-14 -6h-24
q-7 0 -12.5 4t-10.5 11l-209 289l-209 -289q-5 -7 -10.5 -11t-12.5 -4h-22z" />
    <glyph glyph-name="uni0426" unicode="&#x426;" horiz-adv-x="714" 
d="M638 -140q-10 0 -16 6t-6 16v118h-500q-10 0 -16 6.5t-6 16.5v655q0 10 6 16t16 6h18q11 0 17 -6t6 -16v-618h386v618q0 10 6 16t16 6h18q11 0 17 -6t6 -16v-618h50q11 0 17 -6t6 -16v-156q0 -10 -6 -16t-17 -6h-18z" />
    <glyph glyph-name="uni0427" unicode="&#x427;" horiz-adv-x="635" 
d="M500 0q-10 0 -16 6t-6 16v275q-15 -19 -47 -31.5t-70 -18t-71 -5.5q-118 0 -174 52.5t-56 149.5v234q0 10 6 16t16 6h18q11 0 17 -6t6 -16v-229q0 -75 39.5 -111t135.5 -36q26 0 56.5 4.5t59 17.5t46.5 36.5t18 61.5v256q0 10 6 16t16 6h18q11 0 17 -6t6 -16v-656
q0 -10 -6 -16t-17 -6h-18z" />
    <glyph glyph-name="uni0428" unicode="&#x428;" horiz-adv-x="945" 
d="M116 0q-10 0 -16 6t-6 16v656q0 10 6 16t16 6h18q11 0 17 -6t6 -16v-618h284v618q0 10 6 16t16 6h18q11 0 17 -6t6 -16v-618h284v618q0 10 6 16t16 6h18q11 0 17 -6t6 -16v-656q0 -10 -6 -16t-17 -6h-712z" />
    <glyph glyph-name="uni0429" unicode="&#x429;" horiz-adv-x="959" 
d="M883 -140q-10 0 -16 6t-6 16v118h-745q-10 0 -16 6t-6 16v656q0 10 6 16t16 6h18q11 0 17 -6t6 -16v-618h284v618q0 10 6 16t16 6h18q11 0 17 -6t6 -16v-618h284v618q0 10 6 16t16 6h18q11 0 17 -6t6 -16v-618h50q11 0 17 -6t6 -16v-156q0 -10 -6 -16t-17 -6h-18z" />
    <glyph glyph-name="uni042A" unicode="&#x42a;" horiz-adv-x="693" 
d="M239 0q-10 0 -16 6t-6 16v618h-168q-10 0 -16 6t-6 16v15q0 11 6 17t16 6h209q10 0 16 -6t6 -16v-255h163q101 0 155.5 -53.5t54.5 -155.5q0 -51 -22 -100.5t-68.5 -81.5t-119.5 -32h-204zM280 60h153q74 0 115.5 43t41.5 114q0 73 -38.5 109.5t-118.5 36.5h-153v-303z
" />
    <glyph glyph-name="uni042B" unicode="&#x42b;" horiz-adv-x="771" 
d="M116 0q-10 0 -16 6t-6 16v656q0 10 6 16t16 6h18q11 0 17 -6t6 -16v-255h143q101 0 155.5 -53.5t54.5 -155.5q0 -51 -22 -100.5t-68.5 -81.5t-119.5 -32h-184zM157 60h133q74 0 115.5 43t41.5 114q0 73 -38.5 109.5t-118.5 36.5h-133v-303zM636 0q-10 0 -16 6t-6 16v656
q0 10 6 16t16 6h19q10 0 16 -6t6 -16v-656q0 -10 -6 -16t-16 -6h-19z" />
    <glyph glyph-name="uni042C" unicode="&#x42c;" horiz-adv-x="580" 
d="M116 0q-10 0 -16 6t-6 16v656q0 10 6 16t16 6h18q11 0 17 -6t6 -16v-255h173q101 0 155.5 -53.5t54.5 -155.5q0 -51 -22 -100.5t-68.5 -81.5t-119.5 -32h-214zM157 60h163q74 0 115.5 43t41.5 114q0 73 -38.5 109.5t-118.5 36.5h-163v-303z" />
    <glyph glyph-name="uni042D" unicode="&#x42d;" horiz-adv-x="620" 
d="M298 -10q-70 0 -123 22t-84.5 60.5t-37.5 87.5q-1 9 5.5 14.5t15.5 5.5h20q10 0 14.5 -4.5t7.5 -16.5q11 -45 55.5 -77t126.5 -32q92 0 143 65.5t51 180.5v25h-264q-10 0 -16 6.5t-6 16.5v14q0 11 6 17t16 6h264v23q0 127 -51 186.5t-143 59.5q-82 0 -126.5 -32
t-55.5 -77q-3 -12 -7.5 -16.5t-14.5 -4.5h-20q-9 0 -15.5 5.5t-5.5 14.5q6 50 37.5 88t84.5 60t123 22q72 0 129 -30t91 -97t37 -179q1 -20 1 -37.5v-34.5t-1 -36q-3 -112 -37 -179t-91 -97t-129 -30z" />
    <glyph glyph-name="uni042E" unicode="&#x42e;" horiz-adv-x="914" 
d="M583 -10q-73 0 -123 22t-80.5 60t-44.5 88t-16 106q-1 16 -1.5 30.5t-0.5 28.5h-160v-303q0 -10 -6 -16t-17 -6h-18q-10 0 -16 6t-6 16v656q0 10 6 16t16 6h18q11 0 17 -6t6 -16v-293h160q0 11 0.5 23.5t1.5 25.5q2 54 16 104t44.5 88.5t80.5 61t123 22.5
q74 0 123.5 -22.5t80 -61t44.5 -88.5t16 -104q2 -45 2 -84t-2 -84q-2 -56 -16 -106t-44.5 -88t-80 -60t-123.5 -22zM583 50q57 0 101.5 21.5t71 69t28.5 125.5q2 45 2 84t-2 84q-2 78 -28.5 125.5t-71 69t-101.5 21.5q-56 0 -100.5 -21.5t-71 -69t-29.5 -125.5
q-1 -45 -1 -84t1 -84q3 -78 29 -125.5t70.5 -69t101.5 -21.5z" />
    <glyph glyph-name="uni042F" unicode="&#x42f;" horiz-adv-x="642" 
d="M508 0q-10 0 -16.5 6t-6.5 16v255h-173q-67 0 -114 24t-71.5 70.5t-24.5 114.5q0 52 22 101t68.5 81t119.5 32h214q10 0 16 -6t6 -16v-656q0 -10 -6 -16t-16 -6h-18zM110 0q-8 0 -14 6t-6 14q0 5 3 11l189 288l65 -9l-187 -283q-7 -10 -14 -18.5t-24 -8.5h-12zM322 337
h163v303h-163q-74 0 -115.5 -43t-41.5 -114q0 -73 38.5 -109.5t118.5 -36.5z" />
    <glyph glyph-name="uni0430" unicode="&#x430;" horiz-adv-x="536" 
d="M221 -10q-48 0 -88.5 20t-65.5 53.5t-25 75.5q0 68 55 109t143 53l158 22v35q0 53 -32.5 83.5t-103.5 30.5q-52 0 -84 -20.5t-44 -53.5q-5 -15 -19 -15h-16q-12 0 -17 6.5t-5 15.5q0 14 10.5 35t32.5 41.5t57 34.5t85 14q59 0 97.5 -16t60 -41.5t30.5 -56.5t9 -61v-333
q0 -10 -6 -16t-16 -6h-17q-10 0 -16 6t-6 16v47q-12 -18 -34 -36t-56.5 -30.5t-86.5 -12.5zM231 48q46 0 84 20t60.5 61.5t22.5 104.5v34l-129 -18q-82 -11 -124 -38t-42 -68q0 -33 19 -54t48.5 -31.5t60.5 -10.5z" />
    <glyph glyph-name="uni0431" unicode="&#x431;" horiz-adv-x="567" 
d="M288 -10q-72 0 -121 30t-74.5 82t-27.5 116v59.5v59.5q0 94 14.5 155.5t44 100t75 62.5t106.5 42t139 39q8 2 16 -2.5t9 -12.5l4 -19q2 -9 -2 -15.5t-12 -8.5q-74 -20 -131 -35t-97 -34t-64.5 -49.5t-34.5 -82t-6 -131.5h-20q3 43 30.5 77.5t70.5 55.5t91 21
q67 0 113.5 -30t71.5 -81.5t27 -116.5q2 -33 0 -54q-2 -64 -27.5 -116t-74 -82t-120.5 -30zM288 48q70 0 114 45t47 130q1 9 1 19t-1 25q-3 86 -46 130.5t-105 44.5q-70 0 -119 -44.5t-52 -130.5q-1 -15 -1 -25t1 -19q3 -85 47 -130t114 -45z" />
    <glyph glyph-name="uni0432" unicode="&#x432;" horiz-adv-x="542" 
d="M103 0q-10 0 -16 6t-6 16v476q0 10 6 16t16 6h197q83 0 127.5 -37t44.5 -99q0 -48 -18 -71t-52 -39q40 -15 60 -53t20 -76q0 -71 -48.5 -108t-128.5 -37h-202zM142 58h155q55 0 89.5 22t34.5 65q0 46 -31 67t-93 21h-155v-175zM142 291h148q55 0 88 25t33 68q0 44 -33 61
t-88 17h-148v-171z" />
    <glyph glyph-name="uni0433" unicode="&#x433;" horiz-adv-x="418" 
d="M103 0q-10 0 -16 6t-6 16v476q0 10 6 16t16 6h283q10 0 16 -6t6 -16v-14q0 -10 -6 -16t-16 -6h-244v-440q0 -10 -6 -16t-16 -6h-17z" />
    <glyph glyph-name="uni0434" unicode="&#x434;" horiz-adv-x="576" 
d="M42 -110q-10 0 -16 6t-6 16v124q0 10 6 16t16 6h3q28 1 49 32t32.5 100.5t11.5 184.5v123q0 10 6 16t16 6h288q10 0 16 -6t6 -16v-438h49q10 0 16 -6t6 -16v-126q0 -10 -6 -16t-16 -6h-17q-10 0 -16 6t-6 16v88h-399v-88q0 -10 -6 -16t-16 -6h-17zM133 58l276 2v402h-210
v-94q0 -120 -17 -195t-49 -115z" />
    <glyph glyph-name="uni0435" unicode="&#x435;" horiz-adv-x="546" 
d="M274 -10q-97 0 -154 63.5t-65 166.5q-1 15 -1 40t1 40q5 68 32 120t74.5 81t112.5 29q70 0 119 -31t75.5 -89t26.5 -138v-15q0 -10 -6.5 -16t-16.5 -6h-356v-4v-6q2 -45 21 -85.5t54 -66t83 -25.5q43 0 71.5 13t45.5 28.5t22 23.5q9 13 14 15.5t16 2.5h16q9 0 15.5 -5.5
t5.5 -14.5q-1 -14 -15.5 -34.5t-41 -40.5t-64.5 -33t-85 -13zM116 291h318v4q0 50 -19 90t-55 63.5t-86 23.5t-85.5 -23.5t-54 -63.5t-18.5 -90v-4z" />
    <glyph glyph-name="uni0436" unicode="&#x436;" horiz-adv-x="749" 
d="M44 0q-9 0 -14 3.5t-5 10.5q0 5 5 13l175 246l-156 221q-2 4 -3 7t-1 5q0 7 5 10.5t14 3.5h20q9 0 15 -3.5t11 -11.5l147 -210h88v203q0 10 6 16t16 6h17q10 0 16 -6t6 -16v-203h84l149 210q5 8 11 11.5t15 3.5h20q9 0 14.5 -3.5t5.5 -10.5q0 -2 -1.5 -5l-3.5 -7
l-156 -221l175 -246q5 -6 5 -13t-5 -10.5t-14 -3.5h-26q-9 0 -15 3.5t-11 10.5l-158 223h-89v-215q0 -10 -6 -16t-16 -6h-17q-10 0 -16 6t-6 16v215h-89l-160 -223q-4 -7 -10.5 -10.5t-15.5 -3.5h-26z" />
    <glyph glyph-name="uni0437" unicode="&#x437;" horiz-adv-x="492" 
d="M246 -10q-55 0 -93 14t-61.5 36t-34.5 46t-11 45q0 9 6 14.5t15 5.5h17q9 0 15 -4.5t9 -16.5q13 -47 52.5 -64.5t95.5 -17.5q36 0 67 10t49.5 31.5t18.5 54.5q0 48 -27 72t-82 24h-54q-10 0 -16 6t-6 16v14q0 10 6 16t16 6h47q45 0 70.5 18t25.5 59q0 24 -11.5 46
t-38.5 36.5t-75 14.5q-67 0 -93.5 -23.5t-37.5 -68.5q-3 -12 -9 -16.5t-15 -4.5h-17q-9 0 -15 5.5t-6 14.5q0 32 12.5 59t37 48t60.5 32.5t83 11.5q70 0 110.5 -24t58 -57.5t17.5 -63.5q0 -41 -12.5 -66t-47.5 -43q45 -18 62 -51.5t18 -80.5q1 -53 -26.5 -87t-74.5 -50.5
t-105 -16.5z" />
    <glyph glyph-name="uni0438" unicode="&#x438;" horiz-adv-x="596" 
d="M101 0q-8 0 -14 6t-6 14v478q0 10 6 16t16 6h17q10 0 16 -6t6 -16v-449l-18 29l326 427q5 6 10.5 10.5t15.5 4.5h19q8 0 14 -5.5t6 -13.5v-479q0 -10 -6 -16t-16 -6h-17q-10 0 -16 6t-6 16v419l21 5l-329 -431q-4 -5 -10 -10t-16 -5h-19z" />
    <glyph glyph-name="uni0439" unicode="&#x439;" horiz-adv-x="596" 
d="M101 0q-8 0 -14 6t-6 14v478q0 10 6 16t16 6h17q10 0 16 -6t6 -16v-449l-18 29l326 427q5 6 10.5 10.5t15.5 4.5h19q8 0 14 -5.5t6 -13.5v-479q0 -10 -6 -16t-16 -6h-17q-10 0 -16 6t-6 16v419l21 5l-329 -431q-4 -5 -10 -10t-16 -5h-19zM298 590q-56 0 -86.5 17t-42 44
t-11.5 55q0 8 5 13.5t14 5.5h15q9 0 14 -5.5t5 -13.5q0 -24 17.5 -45t69.5 -21q53 0 70 21t17 45q0 8 5 13.5t14 5.5h15q9 0 14 -5.5t5 -13.5q0 -28 -11.5 -55t-42 -44t-86.5 -17z" />
    <glyph glyph-name="uni043A" unicode="&#x43a;" horiz-adv-x="506" 
d="M103 0q-10 0 -16 6t-6 16v476q0 10 6 16t16 6h17q10 0 16 -6t6 -16v-203h107l147 210q5 8 11 11.5t15 3.5h20q9 0 14.5 -3.5t5.5 -10.5q0 -2 -1.5 -5l-3.5 -7l-155 -222l174 -245q5 -6 5 -13t-5 -10.5t-14 -3.5h-26q-9 0 -15 3.5t-11 10.5l-158 221h-110v-213
q0 -10 -6 -16t-16 -6h-17z" />
    <glyph glyph-name="uni043B" unicode="&#x43b;" horiz-adv-x="561" 
d="M48 0q-10 0 -16.5 6.5t-6.5 16.5v16q0 21 20 21q32 0 55.5 30t36.5 99.5t13 185.5v123q0 10 6 16t16 6h286q10 0 16 -6t6 -16v-476q0 -10 -6 -16t-16 -6h-17q-10 0 -16 6t-6 16v440h-208v-94q0 -97 -11 -167t-32.5 -114.5t-51.5 -65.5t-68 -21z" />
    <glyph glyph-name="uni043C" unicode="&#x43c;" horiz-adv-x="664" 
d="M103 0q-10 0 -16 6t-6 16v479q0 8 6.5 13.5t13.5 5.5h23q15 0 23 -15l185 -350l185 350q8 15 23 15h23q8 0 14 -5.5t6 -13.5v-479q0 -10 -6 -16t-16 -6h-17q-10 0 -16 6t-6 16v430h29l-175 -339q-5 -10 -12 -19t-22 -9h-20q-15 0 -22 9t-12 19l-170 320h24v-411
q0 -10 -6 -16t-16 -6h-17z" />
    <glyph glyph-name="uni043D" unicode="&#x43d;" horiz-adv-x="596" 
d="M103 0q-10 0 -16 6t-6 16v476q0 10 6 16t16 6h17q10 0 16 -6t6 -16v-203h312v203q0 10 6 16t16 6h17q10 0 16 -6t6 -16v-476q0 -10 -6 -16t-16 -6h-17q-10 0 -16 6t-6 16v215h-312v-215q0 -10 -6 -16t-16 -6h-17z" />
    <glyph glyph-name="uni043E" unicode="&#x43e;" horiz-adv-x="558" 
d="M279 -10q-72 0 -120.5 30t-74 82t-27.5 116q-1 15 -1 42t1 42q2 65 27.5 116.5t74 81.5t120.5 30t120.5 -30t74 -81.5t27.5 -116.5q1 -15 1 -42t-1 -42q-2 -64 -27.5 -116t-74 -82t-120.5 -30zM279 48q70 0 114 45t47 130q1 15 1 37t-1 37q-3 86 -47 130.5t-114 44.5
t-114 -44.5t-47 -130.5q-1 -15 -1 -37t1 -37q3 -85 47 -130t114 -45z" />
    <glyph glyph-name="uni043F" unicode="&#x43f;" horiz-adv-x="576" 
d="M103 0q-10 0 -16 6t-6 16v476q0 10 6 16t16 6h370q10 0 16 -6t6 -16v-476q0 -10 -6 -16t-16 -6h-17q-10 0 -16 6t-6 16v440h-292v-440q0 -10 -6 -16t-16 -6h-17z" />
    <glyph glyph-name="uni0440" unicode="&#x440;" horiz-adv-x="581" 
d="M104 -190q-10 0 -16 6t-6 16v666q0 10 6 16t16 6h17q10 0 16 -6t6 -16v-47q25 34 65.5 56.5t102.5 22.5q59 0 99 -20.5t65 -54.5t37 -76t13 -86q1 -15 1 -33t-1 -33q-1 -44 -13 -86t-37 -76t-65 -54.5t-99 -20.5q-62 0 -102.5 23t-65.5 56v-237q0 -10 -6 -16t-16 -6h-17z
M305 48q59 0 93 26t49 68t17 90q1 28 0 56q-2 48 -17 90t-49 68t-93 26q-57 0 -92 -27t-51.5 -67.5t-18.5 -81.5q-1 -15 -1 -39t1 -39q1 -40 18.5 -79t53 -65t90.5 -26z" />
    <glyph glyph-name="uni0441" unicode="&#x441;" horiz-adv-x="536" 
d="M278 -10q-70 0 -119 27.5t-74.5 79.5t-27.5 123q-1 15 -1 40t1 40q2 72 27.5 123.5t74.5 79t119 27.5q53 0 91.5 -14.5t63.5 -38t38 -51.5t14 -55q1 -10 -6 -16t-16 -6h-14q-10 0 -14.5 4.5t-9.5 16.5q-21 57 -57.5 79.5t-89.5 22.5q-68 0 -112.5 -41.5t-47.5 -135.5
q-2 -35 0 -70q3 -94 47.5 -135.5t112.5 -41.5q53 0 89.5 22.5t57.5 79.5q5 12 9.5 16.5t14.5 4.5h14q9 0 16 -6t6 -16q-1 -22 -9 -44t-24.5 -43t-40.5 -37t-57.5 -25.5t-75.5 -9.5z" />
    <glyph glyph-name="uni0442" unicode="&#x442;" horiz-adv-x="497" 
d="M240 0q-10 0 -16 6t-6 16v440h-183q-10 0 -16 6t-6 16v14q0 10 6 16t16 6h427q10 0 16 -6t6 -16v-14q0 -10 -6 -16t-16 -6h-183v-440q0 -10 -6 -16t-16 -6h-17z" />
    <glyph glyph-name="uni0443" unicode="&#x443;" horiz-adv-x="529" 
d="M93 -190q-10 0 -16 6t-6 16v14q0 10 6 16t16 6h23q24 0 39 10t27.5 34t30.5 66l224 527q3 7 8 11t15 4h18q8 0 14 -6t6 -14q0 -4 -1.5 -8l-4.5 -12l-190 -446q-13 -31 -29 -69.5t-36 -74t-47 -58t-63 -22.5h-34zM241 17l-200 463q-6 15 -6 20q0 8 6 14t14 6h19
q10 0 15 -4.5t8 -10.5l176 -411z" />
    <glyph glyph-name="uni0444" unicode="&#x444;" horiz-adv-x="679" 
d="M331 -190q-10 0 -16 6t-6 16v168q-87 0 -141.5 30t-81 82t-29.5 116q-2 32 0 64q3 65 29.5 116.5t81 81.5t141.5 30v168q0 10 6 16t16 6h17q10 0 16 -6t6 -16v-168q87 0 141.5 -30t81 -81.5t29.5 -116.5q2 -32 0 -64q-3 -64 -29.5 -116t-81 -82t-141.5 -30v-168
q0 -10 -6 -16t-16 -6h-17zM309 58v404q-92 0 -139 -44.5t-52 -130.5q-1 -15 -1 -27t1 -27q5 -85 52 -130t139 -45zM370 58q92 0 139.5 45t51.5 130q1 15 1 27t-1 27q-4 86 -51.5 130.5t-139.5 44.5v-404z" />
    <glyph glyph-name="uni0445" unicode="&#x445;" horiz-adv-x="518" 
d="M55 0q-8 0 -14 6t-6 14q0 4 1.5 8.5t6.5 11.5l176 226l-167 214q-5 7 -6.5 11.5t-1.5 8.5q0 8 6 14t14 6h21q10 0 15.5 -5t9.5 -10l150 -193l150 192q5 5 10 10.5t15 5.5h20q8 0 14 -6t6 -14q0 -4 -1.5 -8.5t-6.5 -11.5l-169 -217l176 -223q5 -7 6.5 -11.5t1.5 -8.5
q0 -8 -6 -14t-14 -6h-21q-10 0 -15.5 5t-9.5 10l-158 202l-158 -202q-4 -5 -9.5 -10t-15.5 -5h-20z" />
    <glyph glyph-name="uni0446" unicode="&#x446;" horiz-adv-x="601" 
d="M527 -130q-10 0 -16 6t-6 16v108h-402q-10 0 -16 6t-6 16v476q0 10 6 16t16 6h17q10 0 16 -6t6 -16v-440h292v440q0 10 6 16t16 6h17q10 0 16 -6t6 -16l-1 -440h50q10 0 16 -6t6 -16v-144q0 -10 -6 -16t-16 -6h-17z" />
    <glyph glyph-name="uni0447" unicode="&#x447;" horiz-adv-x="527" 
d="M407 0q-10 0 -16 6t-6 16v204q-28 -28 -68 -40.5t-92 -12.5q-85 0 -132.5 35t-47.5 114v176q0 10 6 16t16 6h17q10 0 16 -6t6 -16v-171q0 -49 30.5 -72.5t92.5 -23.5q71 0 113.5 17t42.5 63v187q0 10 6 16t16 6h17q10 0 16 -6t6 -16v-476q0 -10 -6 -16t-16 -6h-17z" />
    <glyph glyph-name="uni0448" unicode="&#x448;" horiz-adv-x="769" 
d="M103 0q-10 0 -16 6t-6 16v476q0 10 6 16t16 6h17q10 0 16 -6t6 -16v-440h212v440q0 10 6 16t16 6h17q10 0 16 -6t6 -16v-440h212v440q0 10 6 16t16 6h17q10 0 16 -6t6 -16v-476q0 -10 -6 -16t-16 -6h-563z" />
    <glyph glyph-name="uni0449" unicode="&#x449;" horiz-adv-x="795" 
d="M721 -130q-10 0 -16 6t-6 16v108h-596q-10 0 -16 6t-6 16v476q0 10 6 16t16 6h17q10 0 16 -6t6 -16v-440h212v440q0 10 6 16t16 6h17q10 0 16 -6t6 -16v-440h212v440q0 10 6 16t16 6h17q10 0 16 -6t6 -16v-440h50q10 0 16 -6t6 -16v-144q0 -10 -6 -16t-16 -6h-17z" />
    <glyph glyph-name="uni044A" unicode="&#x44a;" horiz-adv-x="539" 
d="M186 0q-10 0 -16 6t-6 16v440h-129q-10 0 -16 6t-6 16v14q0 10 6 16t16 6h168q10 0 16 -6t6 -16v-152h100q102 0 145.5 -48t43.5 -129q0 -88 -49.5 -128.5t-154.5 -40.5h-124zM225 58h94q70 0 102 24.5t32 86.5q0 60 -31 89.5t-103 29.5h-94v-230z" />
    <glyph glyph-name="uni044B" unicode="&#x44b;" horiz-adv-x="659" 
d="M103 0q-10 0 -16 6t-6 16v476q0 10 6 16t16 6h17q10 0 16 -6t6 -16v-152h110q102 0 145.5 -48t43.5 -129q0 -88 -49.5 -128.5t-154.5 -40.5h-134zM142 58h104q70 0 102 24.5t32 86.5q0 60 -31 89.5t-103 29.5h-104v-230zM539 0q-10 0 -16 6t-6 16v476q0 10 6 16t16 6h17
q10 0 16 -6t6 -16v-476q0 -10 -6 -16t-16 -6h-17z" />
    <glyph glyph-name="uni044C" unicode="&#x44c;" horiz-adv-x="476" 
d="M103 0q-10 0 -16 6t-6 16v476q0 10 6 16t16 6h17q10 0 16 -6t6 -16v-152h120q102 0 145.5 -48t43.5 -129q0 -88 -49.5 -128.5t-154.5 -40.5h-144zM142 58h114q70 0 102 24.5t32 86.5q0 60 -31 89.5t-103 29.5h-114v-230z" />
    <glyph glyph-name="uni044D" unicode="&#x44d;" horiz-adv-x="536" 
d="M258 -10q-53 0 -91.5 14.5t-63.5 38t-38 51.5t-14 55q-1 10 6 16t16 6h14q11 0 15.5 -4.5t8.5 -16.5q21 -57 58 -79.5t89 -22.5q68 0 112.5 41.5t47.5 135.5v6h-214q-10 0 -16 6t-6 16v14q0 10 6 16t16 6h214v6q-3 94 -47.5 135.5t-112.5 41.5q-52 0 -89 -22.5t-58 -79.5
q-4 -12 -8.5 -16.5t-15.5 -4.5h-14q-9 0 -16 6t-6 16q1 27 14 55t38 51.5t63.5 38t91.5 14.5q106 0 162 -61.5t59 -168.5q1 -15 1 -40t-1 -40q-3 -107 -59 -168.5t-162 -61.5z" />
    <glyph glyph-name="uni044E" unicode="&#x44e;" horiz-adv-x="763" 
d="M277 237h-135v-215q0 -10 -6 -16t-16 -6h-17q-10 0 -16 6t-6 16v476q0 10 6 16t16 6h17q10 0 16 -6t6 -16v-203h135v-58zM484 -10q-72 0 -120.5 30t-74 82t-27.5 116q-1 15 -1 42t1 42q2 65 27.5 116.5t74 81.5t120.5 30t120.5 -30t74 -81.5t27.5 -116.5q1 -15 1 -42
t-1 -42q-2 -64 -27.5 -116t-74 -82t-120.5 -30zM484 48q70 0 114 45t47 130q1 15 1 37t-1 37q-3 86 -47 130.5t-114 44.5t-114 -44.5t-47 -130.5q-1 -15 -1 -37t1 -37q3 -85 47 -130t114 -45z" />
    <glyph glyph-name="uni044F" unicode="&#x44f;" horiz-adv-x="519" 
d="M399 0q-10 0 -16 6t-6 16v172h-128v5q-89 0 -130 46.5t-41 115.5q0 83 47 121t147 38h144q10 0 16 -6t6 -16v-476q0 -10 -6 -16t-16 -6h-17zM85 0q-8 0 -14 6t-6 14q0 4 1.5 9t6.5 11l123 176h75l-141 -201q-4 -5 -11.5 -10t-15.5 -5h-18zM253 252h124v210h-114
q-64 0 -94 -22t-30 -79q0 -47 27.5 -78t86.5 -31z" />
    <glyph glyph-name="uni0450" unicode="&#x450;" horiz-adv-x="546" 
d="M274 -10q-97 0 -154 63.5t-65 166.5q-1 15 -1 40t1 40q5 68 32 120t74.5 81t112.5 29q70 0 119 -31t75.5 -89t26.5 -138v-15q0 -10 -6.5 -16t-16.5 -6h-356v-4v-6q2 -45 21 -85.5t54 -66t83 -25.5q43 0 71.5 13t45.5 28.5t22 23.5q9 13 14 15.5t16 2.5h16q9 0 15.5 -5.5
t5.5 -14.5q-1 -14 -15.5 -34.5t-41 -40.5t-64.5 -33t-85 -13zM116 291h318v4q0 50 -19 90t-55 63.5t-86 23.5t-85.5 -23.5t-54 -63.5t-18.5 -90v-4zM292 595q-10 0 -16.5 1.5t-14.5 8.5l-109 89q-5 5 -5 12q0 19 19 19h41q15 0 22 -4t15 -14l69 -83q5 -5 5 -13
q0 -16 -16 -16h-10z" />
    <glyph glyph-name="uni0451" unicode="&#x451;" horiz-adv-x="546" 
d="M274 -10q-97 0 -154 63.5t-65 166.5q-1 15 -1 40t1 40q5 68 32 120t74.5 81t112.5 29q70 0 119 -31t75.5 -89t26.5 -138v-15q0 -10 -6.5 -16t-16.5 -6h-356v-4v-6q2 -45 21 -85.5t54 -66t83 -25.5q43 0 71.5 13t45.5 28.5t22 23.5q9 13 14 15.5t16 2.5h16q9 0 15.5 -5.5
t5.5 -14.5q-1 -14 -15.5 -34.5t-41 -40.5t-64.5 -33t-85 -13zM116 291h318v4q0 50 -19 90t-55 63.5t-86 23.5t-85.5 -23.5t-54 -63.5t-18.5 -90v-4zM334 627q-10 0 -16 6t-6 16v38q0 10 6 16.5t16 6.5h38q10 0 16.5 -6.5t6.5 -16.5v-38q0 -10 -6.5 -16t-16.5 -6h-38z
M181 627q-10 0 -16 6t-6 16v38q0 10 6 16.5t16 6.5h38q10 0 16.5 -6.5t6.5 -16.5v-38q0 -10 -6.5 -16t-16.5 -6h-38z" />
    <glyph glyph-name="uni0452" unicode="&#x452;" horiz-adv-x="573" 
d="M268 -190q-10 0 -16 6t-6 16v14q0 10 6 16t16 6h4q61 0 97 21t54 58t23.5 86t5.5 105v103q0 80 -39 125.5t-114 45.5q-71 0 -114.5 -45.5t-43.5 -125.5v-219q0 -10 -6 -16t-16 -6h-17q-10 0 -16 6t-6 16v519h-58q-10 0 -16 6t-6 16v14q0 10 6 16t16 6h58v89q0 10 6 16
t16 6h17q10 0 16 -6t6 -16v-89h188q10 0 16 -6t6 -16v-14q0 -10 -6 -16t-16 -6h-188v-150q27 35 65.5 57t102.5 22q68 0 113.5 -29.5t68 -80t22.5 -114.5v-108q0 -69 -10.5 -128.5t-37 -104.5t-73.5 -70t-120 -25h-4z" />
    <glyph glyph-name="uni0453" unicode="&#x453;" horiz-adv-x="418" 
d="M103 0q-10 0 -16 6t-6 16v476q0 10 6 16t16 6h283q10 0 16 -6t6 -16v-14q0 -10 -6 -16t-16 -6h-244v-440q0 -10 -6 -16t-16 -6h-17zM249 595q-16 0 -16 16q0 8 5 13l69 83q8 10 15 14t22 4h41q19 0 19 -19q0 -7 -5 -12l-109 -89q-8 -7 -14.5 -8.5t-16.5 -1.5h-10z" />
    <glyph glyph-name="uni0454" unicode="&#x454;" horiz-adv-x="536" 
d="M278 -10q-106 0 -162 61.5t-59 168.5q0 10 -0.5 25t0 30t0.5 25q3 107 59 168.5t162 61.5q71 0 116 -24.5t67.5 -61.5t23.5 -73q1 -10 -6 -16t-16 -6h-14q-10 0 -14.5 4.5t-9.5 16.5q-21 57 -57.5 79.5t-89.5 22.5q-68 0 -112.5 -41.5t-47.5 -135.5v-6h214q10 0 16 -6
t6 -16v-14q0 -10 -6 -16t-16 -6h-214v-6q3 -94 47.5 -135.5t112.5 -41.5q53 0 89.5 22.5t57.5 79.5q5 12 9.5 16.5t14.5 4.5h14q9 0 16 -6t6 -16q-1 -36 -23.5 -72.5t-67.5 -61.5t-116 -25z" />
    <glyph glyph-name="uni0455" unicode="&#x455;" horiz-adv-x="492" 
d="M246 -10q-52 0 -89.5 14t-61.5 33.5t-35.5 38.5t-12.5 29q-1 11 7 16.5t15 5.5h15q6 0 10.5 -2t11.5 -11q13 -17 30 -32.5t43.5 -24.5t66.5 -9q60 0 99 23t39 68q0 28 -15.5 45t-52.5 30t-100 27q-63 15 -96.5 36t-45.5 48.5t-12 59.5q0 35 20 68.5t59.5 55t99.5 21.5
q49 0 83.5 -13t56.5 -31.5t32.5 -36.5t11.5 -29q1 -10 -6 -16t-16 -6h-15q-8 0 -13 3.5t-9 9.5q-10 16 -24 30t-37.5 22.5t-63.5 8.5q-60 0 -89 -24.5t-29 -62.5q0 -22 12 -38.5t45 -30t96 -28.5q64 -14 101 -34.5t52.5 -48.5t15.5 -66q0 -40 -22.5 -74t-67 -54.5
t-109.5 -20.5z" />
    <glyph glyph-name="uni0456" unicode="&#x456;" horiz-adv-x="223" 
d="M103 0q-10 0 -16 6t-6 16v476q0 10 6 16t16 6h17q10 0 16 -6t6 -16v-476q0 -10 -6 -16t-16 -6h-17zM92 627q-10 0 -16 6t-6 16v38q0 10 6 16.5t16 6.5h38q10 0 16.5 -6.5t6.5 -16.5v-38q0 -10 -6.5 -16t-16.5 -6h-38z" />
    <glyph glyph-name="uni0457" unicode="&#x457;" horiz-adv-x="223" 
d="M103 0q-10 0 -16 6t-6 16v476q0 10 6 16t16 6h17q10 0 16 -6t6 -16v-476q0 -10 -6 -16t-16 -6h-17zM169 627q-10 0 -16 6t-6 16v38q0 10 6 16.5t16 6.5h38q10 0 16.5 -6.5t6.5 -16.5v-38q0 -10 -6.5 -16t-16.5 -6h-38zM16 627q-10 0 -16 6t-6 16v38q0 10 6 16.5t16 6.5
h38q10 0 16.5 -6.5t6.5 -16.5v-38q0 -10 -6.5 -16t-16.5 -6h-38z" />
    <glyph glyph-name="uni0458" unicode="&#x458;" horiz-adv-x="233" 
d="M-4 -190q-10 0 -16 6t-6 16v14q0 10 6 16t16 6h4q41 0 60 15t24.5 40t5.5 55v520q0 10 6 16t16 6h17q10 0 16 -6t6 -16v-520q0 -47 -12.5 -85t-45 -60.5t-93.5 -22.5h-4zM101 627q-10 0 -16 6t-6 16v38q0 10 6 16.5t16 6.5h38q10 0 16.5 -6.5t6.5 -16.5v-38
q0 -10 -6.5 -16t-16.5 -6h-38z" />
    <glyph glyph-name="uni0459" unicode="&#x459;" horiz-adv-x="744" 
d="M421 0q-10 0 -16 6t-6 16v440h-179v-94q0 -97 -12 -166t-34 -112t-54 -64.5t-72 -24.5q-10 -1 -16.5 6t-6.5 17v16q0 18 20 21q34 6 60 35t40.5 96t14.5 183v123q0 10 6 16t16 6h256q10 0 16 -6t6 -16v-152h70q102 0 145.5 -48t43.5 -129q0 -88 -49.5 -128.5
t-154.5 -40.5h-94zM460 58h64q70 0 102 24.5t32 86.5q0 60 -31 89.5t-103 29.5h-64v-230z" />
    <glyph glyph-name="uni045A" unicode="&#x45a;" horiz-adv-x="759" 
d="M103 0q-10 0 -16 6t-6 16v476q0 10 6 16t16 6h17q10 0 16 -6t6 -16v-203h272v203q0 10 6 16t16 6h17q10 0 16 -6t6 -16v-152h70q102 0 145.5 -48t43.5 -129q0 -88 -49.5 -128.5t-154.5 -40.5h-94q-10 0 -16 6t-6 16v215h-272v-215q0 -10 -6 -16t-16 -6h-17zM475 58h64
q70 0 102 24.5t32 86.5q0 60 -31 89.5t-103 29.5h-64v-230z" />
    <glyph glyph-name="uni045B" unicode="&#x45b;" horiz-adv-x="590" 
d="M103 0q-10 0 -16 6t-6 16v519h-58q-10 0 -16 6t-6 16v14q0 10 6 16t16 6h58v89q0 10 6 16t16 6h17q10 0 16 -6t6 -16v-89h188q10 0 16 -6t6 -16v-14q0 -10 -6 -16t-16 -6h-188v-150q27 35 65.5 57t102.5 22q68 0 113.5 -29.5t68 -80t22.5 -114.5v-224q0 -10 -6 -16
t-16 -6h-17q-10 0 -16 6t-6 16v219q0 80 -39 125.5t-114 45.5q-71 0 -114.5 -45.5t-43.5 -125.5v-219q0 -10 -6 -16t-16 -6h-17z" />
    <glyph glyph-name="uni045C" unicode="&#x45c;" horiz-adv-x="506" 
d="M103 0q-10 0 -16 6t-6 16v476q0 10 6 16t16 6h17q10 0 16 -6t6 -16v-203h107l147 210q5 8 11 11.5t15 3.5h20q9 0 14.5 -3.5t5.5 -10.5q0 -2 -1.5 -5l-3.5 -7l-155 -222l174 -245q5 -6 5 -13t-5 -10.5t-14 -3.5h-26q-9 0 -15 3.5t-11 10.5l-158 221h-110v-213
q0 -10 -6 -16t-16 -6h-17zM239 595q-16 0 -16 16q0 8 5 13l69 83q8 10 15 14t22 4h41q19 0 19 -19q0 -7 -5 -12l-109 -89q-8 -7 -14.5 -8.5t-16.5 -1.5h-10z" />
    <glyph glyph-name="uni045D" unicode="&#x45d;" horiz-adv-x="596" 
d="M101 0q-8 0 -14 6t-6 14v478q0 10 6 16t16 6h17q10 0 16 -6t6 -16v-449l-18 29l326 427q5 6 10.5 10.5t15.5 4.5h19q8 0 14 -5.5t6 -13.5v-479q0 -10 -6 -16t-16 -6h-17q-10 0 -16 6t-6 16v419l21 5l-329 -431q-4 -5 -10 -10t-16 -5h-19zM313 595q-10 0 -16.5 1.5
t-14.5 8.5l-109 89q-5 5 -5 12q0 19 19 19h41q15 0 22 -4t15 -14l69 -83q5 -5 5 -13q0 -16 -16 -16h-10z" />
    <glyph glyph-name="uni045E" unicode="&#x45e;" horiz-adv-x="529" 
d="M93 -190q-10 0 -16 6t-6 16v14q0 10 6 16t16 6h23q24 0 39 10t27.5 34t30.5 66l224 527q3 7 8 11t15 4h18q8 0 14 -6t6 -14q0 -4 -1.5 -8l-4.5 -12l-190 -446q-13 -31 -29 -69.5t-36 -74t-47 -58t-63 -22.5h-34zM241 17l-200 463q-6 15 -6 20q0 8 6 14t14 6h19
q10 0 15 -4.5t8 -10.5l176 -411zM262 590q-56 0 -86.5 17t-42 44t-11.5 55q0 8 5 13.5t14 5.5h15q9 0 14 -5.5t5 -13.5q0 -24 17.5 -45t69.5 -21q53 0 70 21t17 45q0 8 5 13.5t14 5.5h15q9 0 14 -5.5t5 -13.5q0 -28 -11.5 -55t-42 -44t-86.5 -17z" />
    <glyph glyph-name="uni045F" unicode="&#x45f;" horiz-adv-x="576" 
d="M279 -130q-10 0 -16 6t-6 16v108h-154q-10 0 -16 6t-6 16v476q0 10 6 16t16 6h17q10 0 16 -6t6 -16v-440h292v440q0 10 6 16t16 6h17q10 0 16 -6t6 -16v-476q0 -10 -6 -16t-16 -6h-155v-108q0 -10 -6 -16t-16 -6h-17z" />
    <glyph glyph-name="uni0462" unicode="&#x462;" horiz-adv-x="639" 
d="M49 530q-10 0 -16 6t-6 16v15q0 11 6 17t16 6h368q11 0 17 -6t6 -17v-15q0 -10 -6 -16t-17 -6h-368zM175 0q-10 0 -16 6t-6 16v656q0 10 6 16t16 6h18q11 0 17 -6t6 -16v-255h173q101 0 155.5 -53.5t54.5 -155.5q0 -51 -22 -100.5t-68.5 -81.5t-119.5 -32h-214zM216 60
h163q74 0 115.5 43t41.5 114q0 73 -38.5 109.5t-118.5 36.5h-163v-303z" />
    <glyph glyph-name="uni0463" unicode="&#x463;" horiz-adv-x="481" 
d="M128 0q-10 0 -16 6t-6 16v666q0 10 6 16t16 6h17q10 0 16 -6t6 -16v-342h100q102 0 145.5 -48t43.5 -129q0 -88 -49.5 -128.5t-154.5 -40.5h-124zM167 58h94q70 0 102 24.5t32 86.5q0 60 -31 89.5t-103 29.5h-94v-230zM47 462q-10 0 -16 6t-6 16v14q0 10 6 16t16 6h265
q10 0 16 -6t6 -16v-14q0 -10 -6 -16t-16 -6h-265z" />
    <glyph glyph-name="uni046A" unicode="&#x46a;" horiz-adv-x="851" 
d="M68 0q-13 0 -19.5 11t-1.5 24l88 233q26 69 66 92.5t101 23.5h52l-234 283q-4 5 -4 13t6 14t14 6h580q8 0 14 -6t6 -14q0 -4 -1 -7t-3 -6l-237 -283h54q61 0 101 -23.5t66 -92.5l88 -233q5 -13 -1.5 -24t-19.5 -11h-20q-14 0 -19 13l-88 233q-17 44 -38.5 61.5
t-68.5 17.5h-92v-303q0 -10 -6 -16t-16 -6h-18q-10 0 -16.5 6t-6.5 16v303h-92q-46 0 -68 -17.5t-39 -61.5l-88 -233q-5 -13 -19 -13h-20zM426 390l210 250h-418z" />
    <glyph glyph-name="uni046B" unicode="&#x46b;" horiz-adv-x="697" 
d="M19 0q-9 0 -14 3.5t-5 10.5t5 13l120 189q32 50 64 64.5t71 14.5h18l-155 189q-4 5 -5 8.5t-1 7.5q0 9 6.5 14.5t13.5 5.5h420q10 0 15 -5.5t5 -13.5q0 -4 -1.5 -7.5t-3.5 -6.5l-153 -192h18q39 0 71.5 -14.5t63.5 -64.5l120 -189q5 -6 5 -13t-5 -10.5t-14 -3.5h-26
q-9 0 -15 3.5t-11 10.5l-103 168q-20 33 -42 44t-57 11h-45v-215q0 -10 -6 -16t-16 -6h-17q-10 0 -16 6t-6 16v215h-45q-34 0 -56.5 -11t-42.5 -44l-103 -168q-5 -7 -11 -10.5t-15 -3.5h-26zM349 295l134 167h-269z" />
    <glyph glyph-name="uni0472" unicode="&#x472;" horiz-adv-x="662" 
d="M107 325v60h466v-60h-466zM331 -10q-83 0 -141 29.5t-89 91t-34 155.5q-1 45 -1 84t1 84q3 93 36 154.5t91.5 91.5t136.5 30t136.5 -30t92 -91.5t35.5 -154.5q2 -45 2 -84t-2 -84q-2 -94 -33.5 -155.5t-89.5 -91t-141 -29.5zM331 50q86 0 141.5 52t59.5 169q2 45 2 79
t-2 79q-2 78 -28.5 127t-71 71.5t-101.5 22.5q-56 0 -100.5 -22.5t-71 -71.5t-29.5 -127q-1 -45 -1 -79t1 -79q4 -117 60 -169t141 -52z" />
    </font>
</defs>
</svg>
